[RREL] Poslední motýl aka The Last Butterfly (1991)

User avatar
Phuzzy4242
Site Admin
Posts: 6489
Likes:
Joined: Sun Aug 23, 2009 1:00 am

Re: [RREL] Poslední motýl aka The Last Butterfly (1991)

Postby Phuzzy4242 » Wed Oct 23, 2013 9:51 pm  45 likes

Upgrade...

[Image]
Spoiler:

General
Complete name : E:\MovieShare\Releases\Last Butterfly, The (1991) MR.avi
Format : AVI
Format/Info : Audio Video Interleave
File size : 1.37 GiB
Duration : 1h 53mn
Overall bit rate : 1 717 Kbps
Writing application : FairUse Wizard - http://fairusewizard.com
Writing library : The best and REALLY easy backup tool

Video
ID : 0
Format : MPEG-4 Visual
Format profile : Advanced Simple@L5
Format settings, BVOP : 1
Format settings, QPel : No
Format settings, GMC : No warppoints
Format settings, Matrix : Default (MPEG)
Muxing mode : Packed bitstream
Codec ID : XVID
Codec ID/Hint : XviD
Duration : 1h 53mn
Bit rate : 1 515 Kbps
Width : 624 pixels
Height : 464 pixels
Display aspect ratio : 4:3
Frame rate : 23.976 fps
Color space : YUV
Chroma subsampling : 4:2:0
Bit depth : 8 bits
Scan type : Progressive
Compression mode : Lossy
Bits/(Pixel*Frame) : 0.218
Stream size : 1.21 GiB (88%)
Writing library : XviD 1.2.0.dev47 (UTC 2006-11-01)

Audio
ID : 1
Format : MPEG Audio
Format version : Version 1
Format profile : Layer 3
Mode : Joint stereo
Codec ID : 55
Codec ID/Hint : MP3
Duration : 1h 53mn
Bit rate mode : Constant
Bit rate : 192 Kbps
Channel(s) : 2 channels
Sampling rate : 48.0 KHz
Compression mode : Lossy
Stream size : 156 MiB (11%)
Alignment : Aligned on interleaves
Interleave, duration : 42 ms (1.00 video frame)
Interleave, preload duration : 504 ms
Writing library : LAME3.97b
Encoding settings : -m j -V 4 -q 2 -lowpass 18.6 -b 192


Like this post to see ed2k links  [1.37 Gb]
reastavachi
Posts: 261
Likes:
Joined: Sun Apr 08, 2012 12:13 pm

Re: [RREL] Poslední motýl aka The Last Butterfly (1991)

Postby reastavachi » Thu Oct 24, 2013 7:15 am  0 likes

Good find, Phuzzy, thanks !
User avatar
vidman49
Posts: 398
Likes:
Joined: Sat Feb 05, 2011 1:00 am

Re: [RREL] Poslední motýl aka The Last Butterfly (1991)

Postby vidman49 » Thu Oct 24, 2013 12:33 pm  0 likes

This movie has been in my top 10 for quite a number of years. I don't care a whole lot for the voice they chose to dub the girl with and have looked for quite a while for the movie with the original audio. If anyone has a clue on how to get a DVD with the original audio, please let me know. Thanks!
User avatar
Sully23
Posts: 156
Likes:
Joined: Wed May 10, 2017 7:41 pm

Re: [RREL] Poslední motýl aka The Last Butterfly (1991)

Postby Sully23 » Fri May 12, 2017 5:29 pm  0 likes

That father-daughter moment seeing does not have to change something uncomfortable when we have children some time will not touch that moment
User avatar
ARTHORIUS
Posts: 3710
Likes:
Joined: Sun Mar 26, 2006 1:00 am

Re: [RREL] Poslední motýl aka The Last Butterfly (1991)

Postby ARTHORIUS » Tue May 23, 2017 8:05 am  0 likes

Every upgrade are always appreciate ty P ;)
ONE RING TO BRING EM ALL
User avatar
ghost
Site Admin
Posts: 3320
Likes:
Joined: Sun Mar 07, 2004 1:00 am

Re: [RREL] Poslední motýl aka The Last Butterfly (1991)

Postby ghost » Sat Oct 27, 2018 7:56 am  16 likes

There are two HD versions on uloz.to recorded from HDTV in original language:

https://www.uloz.to/!0ez9GDw4hfRi/posle ... 0i-ac3-mkv (720p)
https://www.uloz.to/!GzJuv436oVEZ/posle ... 080i-cz-ts (1080p)

I removed the TV logo from the full HD version:

Like this post to see ed2k links  [3.18 Gb]

[Image]

Matching english subtitles:
Like this post to see ed2k links  [73.2 Kb]
deadman
Posts: 91
Likes:
Joined: Thu Jun 22, 2017 4:25 pm

Re: [RREL] Poslední motýl aka The Last Butterfly (1991)

Postby deadman » Sat Oct 27, 2018 12:45 pm  0 likes

Thank you! Great film, first time I've seen it in HD. :)
User avatar
Phuzzy4242
Site Admin
Posts: 6489
Likes:
Joined: Sun Aug 23, 2009 1:00 am

Re: [RREL] Poslední motýl aka The Last Butterfly (1991)

Postby Phuzzy4242 » Sat Oct 27, 2018 3:34 pm  0 likes

:icon_idea2
Coincidentally, I was just looking for a better version of this last week (and didn't find it, of course). Much appreciated, ghost.
User avatar
Tiny Blondie
Posts: 135
Likes:
Joined: Mon Jan 29, 2018 3:45 pm

Re: [RREL] Poslední motýl aka The Last Butterfly (1991)

Postby Tiny Blondie » Fri Nov 02, 2018 9:01 am  0 likes

Thanks for ddl Ghost, much appreciated :D
Lolita, light of my life, fire of my loins. My sin, my soul. Lo-lee-ta.

Return to “Czech & Slovak Republic”

Who is online

Users browsing this forum: No registered users and 4 guests