[RREL] Guldregn (1988)

User avatar
ghost
Site Admin
Posts: 6732
Likes:
Joined: Sun Mar 07, 2004 1:00 am

[RREL] Guldregn (1988)

Post by ghost »   7 likes

[Image]
This movie is about five young kids who accidentally discovers 800.000 Danish crown´s buried in the woods. They later find out that it´s stolen money from the local post office in Nærum.

They decide to keep them until they issue a reward for the money, but the two robbers are on to them...

A very exiting Danish movie, my favourite movie when I was about 10 years old, and I still put it on the VCR, from time to time.
A group of children (Nanna B?ndergaard, Ken Vedsegaard, Ricki Rasmussen, Tania Frydenberg), roughly eight to twelve years old, stumbles onto and takes some stolen loot and then find itself pursued by the nasty thief who pulled off the heist. A decently done kids' flick that is easy to follow if you don't know German.
Like this post to see ed2k links  [701.96 Mb]
User avatar
loverboy
Posts: 1832
Likes:
Joined: Sun Sep 24, 2006 1:00 am

Re: [RREL] Guldregn (1988)

Post by loverboy »   21 likes

This is the six-part TV series from 1986 which formed the basis of the 1988 movie posted.
Cast is the same but movie length is extended to 2 hours 38 minutes.
http://www.imdb.com/title/tt0093127/

[Image][Image][Image][Image]
[Image][Image][Image][Image]
[Image][Image][Image][Image]

File Name .......: Guldregn TV series 1986 loverboy edit.avi
File Size .......: 1,737.75 MB
Duration ........: 02:38:32
Video Codec .....: XviD MPEG-4 codec
Video Bitrate ...: 1404 KB/s
Resolution ......: 720 x 540
Aspect Ratio ....: 1.33:1
Framerate .......: 25 FPS
Audio Codec .....: MPEG-1 Layer 3 (MP3)
Audio Bitrate ...: 128 KB/s (CBR)
Channels ........: 2 Ch

I've no idea what the source of this is.......possibly DVD rip???????? This came to me as individual mis-matched format episodes which I've edited & joined together. The quality can best be described as average.
Danish audio with no subtitles.

Like this post to see ed2k links  [1.70 Gb]

Enjoy!
User avatar
popdrome
Global Moderator
Posts: 2241
Likes:
Joined: Sat Mar 25, 2006 1:00 am

Re: [RREL] Guldregn (1988)

Post by popdrome »   0 likes

Oh wow - nice!! thanks loverboy :bigups !
User avatar
loverboy
Posts: 1832
Likes:
Joined: Sun Sep 24, 2006 1:00 am

Re: [RREL] Guldregn (1988)

Post by loverboy »   0 likes

Screenshots now added............

lb
katzenjammer
Posts: 621
Likes:
Joined: Mon Sep 01, 2008 1:00 am

Re: [RREL] Guldregn (1988)

Post by katzenjammer »   0 likes

great release, loverboy


guess people from nordic countries would like to get this one... tvseries was a hit in Denmark, Sweden and Norway...
User avatar
ptguardian
Posts: 4479
Likes:
Joined: Wed Sep 17, 2008 1:00 am

Re: [RREL] Guldregn (1988)

Post by ptguardian »   0 likes

The tv series mentioned from 1986 is on torrent full dvdr released yesterday http://thepiratebay.se/torrent/7169305/ ... _____DVD_5

For those who may be interested. :D
User avatar
Pardal2008
Posts: 341
Likes:
Joined: Wed Feb 22, 2012 10:23 pm

Re: [RREL] Guldregn (1988)

Post by Pardal2008 »   0 likes

Thanks to all, it looks interesting. ;)
Pardal
All the little girls are in love only to me
User avatar
Devil❧
Posts: 193
Likes:
Joined: Tue Feb 26, 2019 3:50 am

Re: [RREL] Guldregn (1988)

Post by Devil❧ »   0 likes

reshare plz
User avatar
Phuzzy4242
Site Admin
Posts: 7686
Likes:
Joined: Sun Aug 23, 2009 1:00 am

Re: [RREL] Guldregn (1988)

Post by Phuzzy4242 »   10 likes

I have this version I downloaded in 2007. I don't remember where I got it but it's neither of the releases above. 96 minutes total, standard quality. I don't see anything on uloz.to and these two files are the only ones I see shared on eMule.
Spoiler:

General
Complete name : F:\Online\FLM\Checked\Guldregn (1988) cd1.avi
Format : AVI
Format/Info : Audio Video Interleave
File size : 700 MiB
Duration : 44 min 0 s
Overall bit rate : 2 225 kb/s
Writing application : VirtualDubMod 1.5.4.1 (build 2178/release)
Writing library : VirtualDubMod build 2178/release

Video
ID : 0
Format : MPEG-4 Visual
Format profile : Advanced Simple@L5
Format settings : BVOP1 / Custom Matrix
Format settings, BVOP : 1
Format settings, QPel : No
Format settings, GMC : No warppoints
Format settings, Matrix : Custom
Codec ID : XVID
Codec ID/Hint : XviD
Duration : 44 min 0 s
Bit rate : 2 026 kb/s
Width : 656 pixels
Height : 400 pixels
Display aspect ratio : 16:10
Frame rate : 25.000 FPS
Color space : YUV
Chroma subsampling : 4:2:0
Bit depth : 8 bits
Scan type : Progressive
Compression mode : Lossy
Bits/(Pixel*Frame) : 0.309
Stream size : 638 MiB (91%)
Writing library : XviD 1.2.0.dev47 (UTC 2006-11-01)

Audio
ID : 1
Format : AC-3
Format/Info : Audio Coding 3
Commercial name : Dolby Digital
Codec ID : 2000
Duration : 44 min 0 s
Bit rate mode : Constant
Bit rate : 192 kb/s
Channel(s) : 2 channels
Channel layout : L R
Sampling rate : 48.0 kHz
Frame rate : 31.250 FPS (1536 SPF)
Bit depth : 16 bits
Compression mode : Lossy
Stream size : 60.4 MiB (9%)
Alignment : Split across interleaves
Interleave, duration : 96 ms (2.40 video frames)
Interleave, preload duration : 96 ms
Language : Dansk / Dansk
Service kind : Complete Main
Like this post to see ed2k links  [700.29 Mb]

Like this post to see ed2k links  [700.18 Mb]
User avatar
ghost
Site Admin
Posts: 6732
Likes:
Joined: Sun Mar 07, 2004 1:00 am

Re: [RREL] Guldregn (1988)

Post by ghost »   16 likes

I got the german DVD and made a pretty good rip:

[Image]

There are two audio tracks: german and (original) danish.
Spoiler:

General
Complete name : Guldregn (1988).ger-dan.mkv
Format : Matroska
Format version : Version 4
File size : 1.60 GiB
Duration : 1 h 35 min
Overall bit rate : 2 391 kb/s
Encoded date : UTC 2019-07-12 06:38:15
Writing application : mkvmerge v35.0.0 ('All The Love In The World') 64-bit
Writing library : libebml v1.3.9 + libmatroska v1.5.2

Video
ID : 1
Format : AVC
Format/Info : Advanced Video Codec
Format profile : Main@L3.1
Format settings : CABAC / 4 Ref Frames
Format settings, CABAC : Yes
Format settings, Reference : 4 frames
Codec ID : V_MPEG4/ISO/AVC
Duration : 1 h 35 min
Bit rate : 2 006 kb/s
Width : 1 024 pixels
Height : 576 pixels
Display aspect ratio : 16:9
Frame rate mode : Constant
Frame rate : 25.000 FPS
Standard : PAL
Color space : YUV
Chroma subsampling : 4:2:0
Bit depth : 8 bits
Scan type : Progressive
Bits/(Pixel*Frame) : 0.136
Stream size : 1.34 GiB (84%)
Default : Yes
Forced : No
Color range : Limited
Color primaries : BT.601 PAL
Transfer characteristics : BT.470 System B/G
Matrix coefficients : BT.470 System B/G

Audio #1
ID : 2
Format : AAC LC
Format/Info : Advanced Audio Codec Low Complexity
Codec ID : A_AAC-2
Duration : 1 h 35 min
Bit rate : 192 kb/s
Channel(s) : 2 channels
Channel layout : L R
Sampling rate : 48.0 kHz
Frame rate : 46.875 FPS (1024 SPF)
Compression mode : Lossy
Delay relative to video : 26 ms
Stream size : 132 MiB (8%)
Language : German
Default : Yes
Forced : No

Audio #2
ID : 3
Format : AAC LC
Format/Info : Advanced Audio Codec Low Complexity
Codec ID : A_AAC-2
Duration : 1 h 35 min
Bit rate : 192 kb/s
Channel(s) : 2 channels
Channel layout : L R
Sampling rate : 48.0 kHz
Frame rate : 46.875 FPS (1024 SPF)
Compression mode : Lossy
Delay relative to video : 8 ms
Stream size : 129 MiB (8%)
Language : Danish
Default : No
Forced : No
Like this post to see ed2k links  [1.60 Gb]
Post Reply