[REL] Farvel, jeg hedder Kurt (1969)

User avatar
yoko
Posts: 631
Likes:
Joined: Sat Aug 27, 2011 3:40 am

[REL] Farvel, jeg hedder Kurt (1969)

Postby yoko » Sun Oct 23, 2011 3:55 am  95 likes

http://www.imdb.com/title/tt0352333/

[Image]

[Image]

Don't worry about the file size; a friend with fast connection will be helping to share for a couple of days, so if you are quick, you'll get it fast ;)

Like this post to see ed2k links  [3.72 Gb]

It's 100% OT.

Translated subs (thanks to PlanetPluto@TLM):
Like this post to see ed2k links  [25.5 Kb]
Like this post to see ed2k links  [25.4 Kb]
Last edited by yoko on Sun Oct 23, 2011 10:15 pm, edited 1 time in total.
User avatar
ptguardian
Posts: 4479
Likes:
Joined: Wed Sep 17, 2008 1:00 am

Re: [REL] Farvel, jeg hedder Kurt (1969)

Postby ptguardian » Sun Oct 23, 2011 4:17 am  0 likes

Thank you, I look forward to this. :thumbsup


This looks very familiar to me. Perhaps it was a request in the past or part of a series of movies?
User avatar
starfish21
Posts: 3376
Likes:
Joined: Tue May 23, 2006 1:00 am

Re: [REL] Farvel, jeg hedder Kurt (1969)

Postby starfish21 » Sun Oct 23, 2011 8:12 am  0 likes

have you got any information about this movie Yoko?. what's it about?,3.7gigs is too big a file for people to use up their limited bandwidth on without at least a few screencaps to tempt them.there doesn't appear to be much about this on the usual movie sites.
User avatar
For An Angel
Posts: 655
Likes:
Joined: Sat Jan 02, 2010 1:00 am

Re: [REL] Farvel, jeg hedder Kurt (1969)

Postby For An Angel » Sun Oct 23, 2011 2:22 pm  1 likes

A rough translation from the back DVD cover...
Alberta is 6 years ... and 3 days old. It's Sunday and her mom and dad are sleeping quietly.

She gets up and wants to eat french toast for breakfast, so she decides to make some. Mom wakes up and gets upset over the mess in her kitchen. Alberta gets angry and decides to runaway and change her name to Kurt.

She builds a house on a boat near the jetty. She gets help with the construction by a lady who lives in a magic boat. Mom and dad miss her, and often comes to visit - very often. Suddenly, they are not so busy or angry anymore and they want to play with her.

It appears to have English subtitles so that's good enough for me! :D
User avatar
yoko
Posts: 631
Likes:
Joined: Sat Aug 27, 2011 3:40 am

Re: [REL] Farvel, jeg hedder Kurt (1969)

Postby yoko » Sun Oct 23, 2011 3:20 pm  1 likes

starfish21 wrote:have you got any information about this movie Yoko?. what's it about?,3.7gigs is too big a file for people to use up their limited bandwidth on without at least a few screencaps to tempt them.there doesn't appear to be much about this on the usual movie sites.

Sorry, I wanted to release this ASAP, so people could use the fast download option. Currently it should take about 4 hours to download the ISO.

I tried to re-encode the ISO to a smaller avi, but the video is interlaced and very noisy, so getting it smaller without significant quality reduction is difficult.

[Image]

Thanks FAA for translation :)

The ISO has only Danish subs, though :(
User avatar
starfish21
Posts: 3376
Likes:
Joined: Tue May 23, 2006 1:00 am

Re: [REL] Farvel, jeg hedder Kurt (1969)

Postby starfish21 » Sun Oct 23, 2011 5:09 pm  81 likes

all credit to yoko for this release, i don't want anyone to think i'm hijacking this post,but a smaller version should be offered as an alternative.

Complete name : Farvel, jeg hedder Kurt (1969)\Farvel, jeg hedder Kurt (1969)\Farvel, jeg hedder Kurt (1969).avi
Format : AVI
Format/Info : Audio Video Interleave
Format profile : OpenDML
File size : 1.34 GiB
Duration : 1h 7mn
Overall bit rate : 2 863 Kbps
Writing application : Magic0515

Video
ID : 0
Format : MPEG-4 Visual
Format profile : Advanced Simple@L4
Format settings, BVOP : No
Format settings, QPel : No
Format settings, GMC : No warppoints
Format settings, Matrix : Default (H.263)
Codec ID : XVID
Codec ID/Hint : XviD
Duration : 1h 7mn
Bit rate : 2 721 Kbps
Width : 640 pixels
Height : 480 pixels
Display aspect ratio : 4:3
Frame rate : 25.000 fps
Color space : YUV
Chroma subsampling : 4:2:0
Bit depth : 8 bits
Scan type : Progressive
Compression mode : Lossy
Bits/(Pixel*Frame) : 0.354
Stream size : 1.27 GiB (95%)
Writing library : Magic0432

Audio
ID : 1
Format : MPEG Audio
Format version : Version 1
Format profile : Layer 3
Mode : Joint stereo
Mode extension : MS Stereo
Codec ID : 55
Codec ID/Hint : MP3
Duration : 1h 7mn
Bit rate mode : Constant
Bit rate : 128 Kbps
Channel(s) : 2 channels
Sampling rate : 44.1 KHz
Compression mode : Lossy
Stream size : 61.4 MiB (4%)
Alignment : Aligned on interleaves
Interleave, duration : 26 ms (0.65 video frame)



[Image]

[Image]

[Image]

[Image]

[Image]

[Image]

[Image]

[Image]

[Image]

[Image]

[Image]

[Image]

[Image]

[Image]

[Image]

Like this post to see ed2k links  [1.34 Gb]
User avatar
Phuzzy4242
Site Admin
Posts: 6798
Likes:
Joined: Sun Aug 23, 2009 1:00 am

Re: [REL] Farvel, jeg hedder Kurt (1969)

Postby Phuzzy4242 » Sun Oct 23, 2011 5:53 pm  0 likes

Thank you yokodreamer and thank you starfish. I don't have the bandwidth for the .iso and I didn't find anything with an eMule search so I figured I'd have to wait awhile for this one. The little girl is a cutie.
User avatar
starfish21
Posts: 3376
Likes:
Joined: Tue May 23, 2006 1:00 am

Re: [REL] Farvel, jeg hedder Kurt (1969)

Postby starfish21 » Sun Oct 23, 2011 6:09 pm  0 likes

i neglected to mention that this is a 3 part tv series joined to form 1 file, 3 x 22mins = total 1 hour 7 min.
User avatar
yoko
Posts: 631
Likes:
Joined: Sat Aug 27, 2011 3:40 am

Re: [REL] Farvel, jeg hedder Kurt (1969)

Postby yoko » Sun Oct 23, 2011 6:28 pm  1 likes

Thanks starfish for providing a smaller rip. I did not realize that there was a demand for it, given that the ISO could be downloaded in just a couple of hours (usually the *upload* bandwidth of ADSL is limited, but everybody has enough *download* bandwidth, right :think).

As I said, I tried to make a smaller rip myself, but the quality of 2CD size was IMO too low. According to your caps, the quality of your rip seems to be similar.
User avatar
starfish21
Posts: 3376
Likes:
Joined: Tue May 23, 2006 1:00 am

Re: [REL] Farvel, jeg hedder Kurt (1969)

Postby starfish21 » Sun Oct 23, 2011 7:08 pm  0 likes

this has quite clearly been ripped from vhs(maybe betamax) so the quality will never be better just because you recode it no matter how big you make the framesize.
my caps are a guide to the movie content and are always resized to 1024x768 so are never a true representation of the movie screen size.i understand you being a bit pissed off but anyone who wants your release can still get it.most members won't download large files if they can help it.

Return to “Denmark”

Who is online

Users browsing this forum: No registered users and 1 guest