[REL] Iris (2011) [Finland/Sweden]

User avatar
Phuzzy4242
Site Admin
Posts: 6667
Likes:
Joined: Sun Aug 23, 2009 1:00 am

Re: [REL] Iris (2011) [Finland/Sweden]

Postby Phuzzy4242 » Tue Jun 26, 2012 9:54 pm  1 likes

Hmm, I never UNshared them.
User avatar
emuler
Posts: 4104
Likes:
Joined: Sun Apr 02, 2006 1:00 am

Re: [REL] Iris (2011) [Finland/Sweden]

Postby emuler » Wed Jun 27, 2012 12:51 am  0 likes

Guest: I don't think you have a problem with the container - it is what's in the container that you have issues with. Here the video stream is encoded with AVC. In others, the H.264 or x.264 codec is used.

How old is the codec pack that you are using? They are updated quite frequently, and it is easy to fall behind.
User avatar
mimzy
Posts: 975
Likes:
Joined: Fri Aug 12, 2011 7:00 am

Re: [REL] Iris (2011) [Finland/Sweden]

Postby mimzy » Wed Jun 27, 2012 3:20 am  1 likes

emuler wrote:Here the video stream is encoded with AVC. In others, the H.264 or x.264 codec is used.

I always thought AVC, H.264 and x.264 was the same thing :huh
User avatar
ptguardian
Posts: 4479
Likes:
Joined: Wed Sep 17, 2008 1:00 am

Re: [REL] Iris (2011) [Finland/Sweden]

Postby ptguardian » Wed Jun 27, 2012 3:40 am  0 likes

mimzy wrote:
emuler wrote:Here the video stream is encoded with AVC. In others, the H.264 or x.264 codec is used.

I always thought AVC, H.264 and x.264 was the same thing :huh


Pretty much. 264 is the compression and most programs use it now.

The problem here with Guest is in the encoding and the compatibility with his computer to process it and nothing else. Guest has been given ample advice on what to do about it and I gave a link recently to a program he can convert with as well. All he has to do is do it. :D

Soon enough 265 compression will be surfacing here and anyone not up to date will not be able to view those files. ;)

High Efficiency Video Coding
User avatar
emuler
Posts: 4104
Likes:
Joined: Sun Apr 02, 2006 1:00 am

Re: [REL] Iris (2011) [Finland/Sweden]

Postby emuler » Wed Jun 27, 2012 4:52 am  0 likes

mimzy wrote:
emuler wrote:Here the video stream is encoded with AVC. In others, the H.264 or x.264 codec is used.

I always thought AVC, H.264 and x.264 was the same thing :huh

There are differences, mostly in the way the file is constructed. IMHO AVC has better seeking.
User avatar
mimzy
Posts: 975
Likes:
Joined: Fri Aug 12, 2011 7:00 am

Re: [REL] Iris (2011) [Finland/Sweden]

Postby mimzy » Wed Jun 27, 2012 11:45 am  0 likes

Wikipedia says:

x264 is a free software library for encoding video streams into the H.264/MPEG-4 AVC format.


So, "H.264" aka "MPEG-4 AVC" is the codec and x264 is the software implementing it, right? :roll:

In fact, I think huge codec packs are not needed nowadays anymore. xvid and x264 (both free/open-source) should decode anything that have been posted in the last few years.
User avatar
starfish21
Posts: 3376
Likes:
Joined: Tue May 23, 2006 1:00 am

Re: [REL] Iris (2011) [Finland/Sweden]

Postby starfish21 » Sun Jul 08, 2012 4:54 pm  1 likes

[Image]

[Image]

[Image]

[Image]

[Image]

[Image]

[Image]

[Image]

[Image]

[Image]

[Image]

[Image]

[Image]

[Image]

[Image]

[Image]

[Image]

[Image]

[Image]

[Image]

[Image]

[Image]

[Image]

[Image]

[Image]


[Image] [Image] [Image]

[Image] [Image] [Image]

[Image] [Image] [Image]

[Image] [Image] [Image]

[Image] [Image] [Image]

[Image] [Image] [Image]

[Image] [Image] [Image]

[Image] [Image] [Image]

[Image]
User avatar
ghost
Site Admin
Posts: 3549
Likes:
Joined: Sun Mar 07, 2004 1:00 am

Re: [REL] Iris (2011) [Finland/Sweden]

Postby ghost » Fri Apr 05, 2019 12:52 am  8 likes

Upgrade to Full HD! :icon_1dancingban

[Image]

The movie has two audio-tracks: german and swedish.

I also added machting english subtitles.

Spoiler:

General
Complete name : Iris (2011).1080p.ger-swe.mkv
Format : Matroska
Format version : Version 4
File size : 2.75 GiB
Duration : 1 h 21 min
Overall bit rate : 4 823 kb/s
Encoded date : UTC 2019-04-04 23:31:51
Writing application : mkvmerge v32.0.0 ('Astral Progressions') 64-bit
Writing library : libebml v1.3.7 + libmatroska v1.5.0

Video
ID : 1
Format : AVC
Format/Info : Advanced Video Codec
Format profile : Main@L4.1
Format settings : CABAC / 4 Ref Frames
Format settings, CABAC : Yes
Format settings, ReFrames : 4 frames
Codec ID : V_MPEG4/ISO/AVC
Duration : 1 h 21 min
Bit rate : 4 532 kb/s
Width : 1 920 pixels
Height : 1 080 pixels
Display aspect ratio : 16:9
Frame rate mode : Constant
Frame rate : 25.000 FPS
Color space : YUV
Chroma subsampling : 4:2:0
Bit depth : 8 bits
Scan type : Progressive
Bits/(Pixel*Frame) : 0.087
Stream size : 2.58 GiB (94%)
Default : Yes
Forced : No
Color range : Limited
Color primaries : BT.709
Transfer characteristics : BT.709
Matrix coefficients : BT.709

Audio #1
ID : 2
Format : AAC LC
Format/Info : Advanced Audio Codec Low Complexity
Codec ID : A_AAC-2
Duration : 1 h 21 min
Bit rate : 129 kb/s
Channel(s) : 2 channels
Channel layout : L R
Sampling rate : 48.0 kHz
Frame rate : 46.875 FPS (1024 SPF)
Compression mode : Lossy
Delay relative to video : 1 s 100 ms
Stream size : 74.8 MiB (3%)
Language : German
Default : Yes
Forced : No

Audio #2
ID : 3
Format : AAC LC
Format/Info : Advanced Audio Codec Low Complexity
Codec ID : A_AAC-2
Duration : 1 h 21 min
Bit rate : 161 kb/s
Channel(s) : 2 channels
Channel layout : L R
Sampling rate : 48.0 kHz
Frame rate : 46.875 FPS (1024 SPF)
Compression mode : Lossy
Delay relative to video : 1 s 100 ms
Stream size : 93.2 MiB (3%)
Language : Swedish
Default : No
Forced : No



Like this post to see ed2k links  [2.75 Gb]

Like this post to see ed2k links  [40.7 Kb]

Return to “Finland”

Who is online

Users browsing this forum: No registered users and 1 guest