[REL] Veneno para las hadas (1984) [Mexico]

Rich
Posts: 2824
Likes:
Joined: Sat Feb 21, 2004 1:00 am

[REL] Veneno para las hadas (1984) [Mexico]

Postby Rich » Fri Apr 01, 2005 2:34 am  21 likes

Veneno para las hadas (1984)

[Image]

Mexico City circa 1965: Fabiola is an aristocratic little girl, who is very lonely and bored. At school she meets and befriends a strange and beautiful girl named Graciela, who dreams of becoming a witch. Their games get increasingly sadistic and macabre, and escalate to involve the bloody murder of a schoolmate and macabre mayhem.


Originally posted by vtwin0001 at fileheaven :applause:

Like this post to see ed2k links  [700.78 Mb]

Like this post to see ed2k links  [47.9 Kb]

;)
billanben
Posts: 1396
Likes:
Joined: Tue Feb 07, 2006 1:00 am

Re: [REL] Veneno para las hadas (1984) [Mexico]

Postby billanben » Sun Mar 19, 2006 12:56 am  0 likes

Honestly one of the best ot you will ver see. Get it !!
terry666
Posts: 509
Likes:
Joined: Mon Jan 02, 2006 1:00 am

Re: [REL] Veneno para las hadas (1984) [Mexico]

Postby terry666 » Sat Jan 06, 2007 6:10 am  0 likes

This movie is good, but it really teases you, if you know what I mean.
Debaser

Re: [REL] Veneno para las hadas (1984) [Mexico]

Postby Debaser » Sat Jan 06, 2007 8:45 am  0 likes

but it really teases you, if you know what I mean.


Yes I know what you mean, and id say its like that for many of my OT titles.
User avatar
starfish21
Posts: 3376
Likes:
Joined: Tue May 23, 2006 1:00 am

Re: [REL] Veneno para las hadas (1984) [Mexico]

Postby starfish21 » Mon Oct 24, 2011 9:24 pm  52 likes

Time for an upgrade of this.

http://www.imdb.com/title/tt0135033/


General
Complete name :Veneno para las hadas.avi
Format : AVI
Format/Info : Audio Video Interleave
File size : 1.19 GiB
Duration : 1h 29mn
Overall bit rate : 1 901 Kbps
Writing application : VirtualDubMod 1.5.4.1 (build 2178/release)
Writing library : VirtualDubMod build 2178/release

Video
ID : 0
Format : MPEG-4 Visual
Format profile : Advanced Simple@L5
Format settings, BVOP : 2
Format settings, QPel : No
Format settings, GMC : No warppoints
Format settings, Matrix : Default (MPEG)
Codec ID : XVID
Codec ID/Hint : XviD
Duration : 1h 29mn
Bit rate : 1 700 Kbps
Width : 656 pixels
Height : 480 pixels
Display aspect ratio : 4:3
Frame rate : 23.976 fps
Color space : YUV
Chroma subsampling : 4:2:0
Bit depth : 8 bits
Scan type : Progressive
Compression mode : Lossy
Bits/(Pixel*Frame) : 0.225
Stream size : 1.07 GiB (89%)
Writing library : XviD 1.2.1 (UTC 2008-12-04)

Audio
ID : 1
Format : AC-3
Format/Info : Audio Coding 3
Mode extension : CM (complete main)
Codec ID : 2000
Duration : 1h 29mn
Bit rate mode : Constant
Bit rate : 192 Kbps
Channel(s) : 2 channels
Channel positions : Front: L R
Sampling rate : 48.0 KHz
Bit depth : 16 bits
Compression mode : Lossy
Stream size : 123 MiB (10%)
Alignment : Split accross interleaves
Interleave, duration : 42 ms (1.00 video frame)
Interleave, preload duration : 500 ms



[Image]

[Image][Image][Image][Image]

[Image][Image][Image][Image]

[Image][Image][Image][Image]

[Image][Image][Image][Image]

[Image][Image][Image][Image]

[Image][Image][Image][Image]

[Image][Image]



Like this post to see ed2k links  [1.19 Gb]
Like this post to see ed2k links  [47.7 Kb]
User avatar
Phuzzy4242
Site Admin
Posts: 6670
Likes:
Joined: Sun Aug 23, 2009 1:00 am

Re: [REL] Veneno para las hadas (1984) [Mexico]

Postby Phuzzy4242 » Mon Oct 24, 2011 10:06 pm  0 likes

Super! I remember this one well. :lol: Thanks starfish!
User avatar
ptguardian
Posts: 4479
Likes:
Joined: Wed Sep 17, 2008 1:00 am

Re: [REL] Veneno para las hadas (1984) [Mexico]

Postby ptguardian » Mon Oct 24, 2011 11:47 pm  0 likes

"Poison for the Fairies"(Veneno para las hadas)

One of my favorites, I bought this dvd a while back and am still looking for the widescreen version it was listed used on Amazon for a high price. Not listed anymore. :wall I doubt we are missing much. All the 'good stuff' appears to be there. :cool


Good movie. I recommend seeing it.

Thanks for the upgrade Starfish, I am sure it will be well liked. :thumbsup
katzenjammer
Posts: 621
Likes:
Joined: Mon Sep 01, 2008 1:00 am

Re: [REL] Veneno para las hadas (1984) [Mexico]

Postby katzenjammer » Fri Nov 04, 2011 10:23 pm  0 likes

Thanks for this one Starfish.
User avatar
Sully23
Posts: 404
Likes:
Joined: Wed May 10, 2017 7:41 pm

Re: [REL] Veneno para las hadas (1984) [Mexico]

Postby Sully23 » Wed Jul 18, 2018 10:48 pm  0 likes

still works the subs in English?

Return to “Latin America”

Who is online

Users browsing this forum: No registered users and 2 guests