[REL] O Ano em Que Meus Pais Saíram de Férias (2006) Brazil

User avatar
Phuzzy4242
Site Admin
Posts: 7686
Likes:
Joined: Sun Aug 23, 2009 1:00 am

Re: [REL] O Ano em Que Meus Pais Saíram de Férias (2006) [Br

Post by Phuzzy4242 »   2 likes

O Ano em Que Meus Pais Saíram de Férias (2006) [Brazil]
The Year My Parents Went on Vacation

[Image]
IMDb wrote:In 1970, near the World Cup, Daniel Stern and his wife Miriam leaves Belo Horizonte in a hurry and scared with their ten years old son Mauro in their Volkswagen. While traveling to São Paulo, the couple explains Mauro that they will travel on vacation and will leave Mauro with his grandfather Mótel. Daniel promises to return before the first game of the Brazilian National Soccer Team in the Cup. The boy is left in Bom Retiro, a Jewish and Italian neighborhood, and waits for Mótel in front of his apartment. When the next door neighbor Shlomo arrives, he tells the boy that Mótel had just had a heart attack and died. Alone and without knowing where his parents are, the boy is lodged by Shlomo and the Jewish community. Through the young neighbor Hanna, Mauro makes new friends, cheers for the Brazilian team and sees the movement of the police and militaries on the streets while waiting for his parents.
This was split off a topic buried in General and looks like a BM.
User avatar
ptguardian
Posts: 4479
Likes:
Joined: Wed Sep 17, 2008 1:00 am

Re: [REL] O Ano em Que Meus Pais Saíram de Férias (2006) Bra

Post by ptguardian »   0 likes

http://torrentz.eu/30547b90494a888226d6 ... 2fa965faed ;)

Have DHT enabled (magnet) or plug in working tracker

Code: Select all

udp://tracker.openbittorrent.com:80
Last edited by ptguardian on Tue Jun 26, 2012 10:16 am, edited 1 time in total.
User avatar
starfish21
Posts: 3375
Likes:
Joined: Tue May 23, 2006 1:00 am

Re: [REL] O Ano em Que Meus Pais Saíram de Férias (2006) Bra

Post by starfish21 »   0 likes

i've got about 12% of this so far.
User avatar
ptguardian
Posts: 4479
Likes:
Joined: Wed Sep 17, 2008 1:00 am

Re: [REL] O Ano em Que Meus Pais Saíram de Férias (2006) Bra

Post by ptguardian »   6 likes

if the ed2k posted is no longer being shared the file from torrent is good quality and has seeds.

Here are the English subs from that rip.

Like this post to see ed2k links  [40.1 Kb] English
User avatar
yoko
Posts: 656
Likes:
Joined: Sat Aug 27, 2011 3:40 am

Re: [REL] O Ano em Que Meus Pais Saíram de Férias (2006) Bra

Post by yoko »   1 likes

ptguardian wrote:if the ed2k posted is no longer being shared the file from torrent is good quality and has seeds.
The ed2k can be shared if requested. Obviously all files cannot be online all the time...

Anyway, thanks for digging it out from General and potentially a better rip :thumbsup
User avatar
guava98
Posts: 23
Likes:
Joined: Mon Jul 24, 2023 1:03 am

Re: [REL] O Ano em Que Meus Pais Saíram de Férias (2006) Brazil

Post by guava98 »   0 likes

Does anyone have this and can share it?
User avatar
DreamScape
Posts: 373
Likes:
Joined: Tue Sep 15, 2020 7:06 am

Re: [REL] O Ano em Que Meus Pais Saíram de Férias (2006) Brazil

Post by DreamScape »   15 likes

The.Year.My.Parents.Went.on.Vacation.2006.1080p.MUBI.WEB-DL.AAC2.0.x264-KUCHU.mkv

[Image]

Like this post to see ed2k links  [3.81 Gb]
Spoiler:

Code: Select all

General
Unique ID                                : 20163865466941474385219812490666627488 (0xF2B6B52A3DD7D7CD039704FFE04D1A0)
Complete name                            : The.Year.My.Parents.Went.on.Vacation.2006.1080p.MUBI.WEB-DL.AAC2.0.x264-KUCHU.mkv
Format                                   : Matroska
Format version                           : Version 4
File size                                : 3.81 GiB
Duration                                 : 1 h 39 min
Overall bit rate                         : 5 490 kb/s
Frame rate                               : 25.000 FPS
Movie name                               : The Year My Parents Went on Vacation (2006)
Encoded date                             : 2023-05-29 12:26:49 UTC
Writing application                      : mkvmerge v63.0.0 ('Everything') 64-bit
Writing library                          : libebml v1.4.2 + libmatroska v1.6.4
IMDB                                     : tt0857355
TMDB                                     : movie/14421

Video
ID                                       : 1
Format                                   : AVC
Format/Info                              : Advanced Video Codec
Format profile                           : High@L4
Format settings                          : CABAC / 4 Ref Frames
Format settings, CABAC                   : Yes
Format settings, Reference frames        : 4 frames
Format settings, GOP                     : M=6, N=50
Codec ID                                 : V_MPEG4/ISO/AVC
Duration                                 : 1 h 39 min
Bit rate mode                            : Constant
Bit rate                                 : 5 188 kb/s
Nominal bit rate                         : 5 500 kb/s
Width                                    : 1 920 pixels
Height                                   : 960 pixels
Display aspect ratio                     : 2.000
Frame rate mode                          : Constant
Frame rate                               : 25.000 FPS
Color space                              : YUV
Chroma subsampling                       : 4:2:0
Bit depth                                : 8 bits
Scan type                                : Progressive
Bits/(Pixel*Frame)                       : 0.113
Stream size                              : 3.60 GiB (95%)
Writing library                          : x264 core 155 r2917 0a84d98
Encoding settings                        : cabac=1 / ref=3 / deblock=1:-1:-1 / analyse=0x3:0x113 / me=hex / subme=8 / psy=1 / psy_rd=1.00:0.15 / mixed_ref=1 / me_range=16 / chroma_me=1 / trellis=2 / 8x8dct=1 / cqm=0 / deadzone=21,11 / fast_pskip=1 / chroma_qp_offset=-3 / threads=24 / lookahead_threads=4 / sliced_threads=0 / nr=0 / decimate=1 / interlaced=0 / bluray_compat=0 / constrained_intra=0 / bframes=5 / b_pyramid=2 / b_adapt=1 / b_bias=0 / direct=3 / weightb=1 / open_gop=0 / weightp=2 / keyint=50 / keyint_min=26 / scenecut=0 / intra_refresh=0 / rc_lookahead=50 / rc=cbr / mbtree=1 / bitrate=5500 / ratetol=1.0 / qcomp=0.60 / qpmin=0 / qpmax=69 / qpstep=4 / vbv_maxrate=5500 / vbv_bufsize=11000 / nal_hrd=cbr / filler=1 / ip_ratio=1.40 / aq=1:1.00
Language                                 : Portuguese
Default                                  : Yes
Forced                                   : No

Audio
ID                                       : 2
Format                                   : AAC LC
Format/Info                              : Advanced Audio Codec Low Complexity
Codec ID                                 : 2 / A_AAC-2
Duration                                 : 1 h 39 min
Bit rate                                 : 299 kb/s
Channel(s)                               : 2 channels
Channel layout                           : L R
Sampling rate                            : 48.0 kHz
Frame rate                               : 46.875 FPS (1024 SPF)
Compression mode                         : Lossy
Stream size                              : 213 MiB (5%)
Language                                 : Portuguese
Default                                  : Yes
Forced                                   : No

Text #1
ID                                       : 3
Format                                   : UTF-8
Codec ID                                 : S_TEXT/UTF8
Codec ID/Info                            : UTF-8 Plain Text
Duration                                 : 1 h 32 min
Bit rate                                 : 25 b/s
Frame rate                               : 0.110 FPS
Count of elements                        : 611
Stream size                              : 17.3 KiB (0%)
Language                                 : English
Default                                  : Yes
Forced                                   : No

Text #2
ID                                       : 4
Format                                   : UTF-8
Codec ID                                 : S_TEXT/UTF8
Codec ID/Info                            : UTF-8 Plain Text
Duration                                 : 1 h 32 min
Bit rate                                 : 25 b/s
Frame rate                               : 0.100 FPS
Count of elements                        : 557
Stream size                              : 17.5 KiB (0%)
Language                                 : Turkish
Default                                  : No
Forced                                   : No


Post Reply