Und dennoch lieben wir (2011) [Germany]

Movies that don't quite meet the requirements to be on-topic for FLM, maybe because the actors are too old or screen time is too small.
User avatar
yoko
Posts: 629
Likes:
Joined: Sat Aug 27, 2011 3:40 am

Und dennoch lieben wir (2011) [Germany]

Postby yoko » Sat Jan 18, 2014 6:40 am  1 likes

http://www.imdb.com/title/tt1972818/
http://rarefilmfinder.com/showfilm.php?id=34194
http://www.br.de/fernsehen/bayerisches- ... 22366.html

FLM interest (limited screentime): Lisa Vicari ([REL] Viki Ficki (2010) [Germany], [REL] Hell (2011))

Yup, she's very talented and pretty, but we don't get to see her enough :(

Included are (German) subtitles for the deaf and an audio track for the blind.

Code: Select all

General
ID                                       : 1101 (0x44D)
Complete name                            : und_dennoch_lieben_wir.ts
Format                                   : MPEG-TS
File size                                : 2.31 GiB
Duration                                 : 1h 28mn
Overall bit rate mode                    : Variable
Overall bit rate                         : 3 731 Kbps

Video
ID                                       : 201 (0xC9)
Menu ID                                  : 28107 (0x6DCB)
Format                                   : MPEG Video
Format version                           : Version 2
Format profile                           : Main@Main
Format settings, BVOP                    : Yes
Format settings, Matrix                  : Custom
Format settings, GOP                     : Variable
Codec ID                                 : 2
Duration                                 : 1h 28mn
Bit rate mode                            : Variable
Bit rate                                 : 2 706 Kbps
Maximum bit rate                         : 15.0 Mbps
Width                                    : 720 pixels
Height                                   : 576 pixels
Display aspect ratio                     : 16:9
Frame rate                               : 25.000 fps
Standard                                 : PAL
Color space                              : YUV
Chroma subsampling                       : 4:2:0
Bit depth                                : 8 bits
Scan type                                : Interlaced
Scan order                               : Top Field First
Compression mode                         : Lossy
Bits/(Pixel*Frame)                       : 0.261
Stream size                              : 1.68 GiB (73%)

Audio #1
ID                                       : 202 (0xCA)
Menu ID                                  : 28107 (0x6DCB)
Format                                   : MPEG Audio
Format version                           : Version 1
Format profile                           : Layer 2
Codec ID                                 : 3
Duration                                 : 1h 28mn
Bit rate mode                            : Constant
Bit rate                                 : 192 Kbps
Channel(s)                               : 2 channels
Sampling rate                            : 48.0 KHz
Compression mode                         : Lossy
Delay relative to video                  : -273ms
Stream size                              : 122 MiB (5%)
Language                                 : German

Audio #2
ID                                       : 203 (0xCB)
Menu ID                                  : 28107 (0x6DCB)
Format                                   : MPEG Audio
Format version                           : Version 1
Format profile                           : Layer 2
Codec ID                                 : 3
Duration                                 : 1h 28mn
Bit rate mode                            : Constant
Bit rate                                 : 192 Kbps
Channel(s)                               : 2 channels
Sampling rate                            : 48.0 KHz
Compression mode                         : Lossy
Delay relative to video                  : -282ms
Stream size                              : 122 MiB (5%)

Audio #3
ID                                       : 206 (0xCE)
Menu ID                                  : 28107 (0x6DCB)
Format                                   : AC-3
Format/Info                              : Audio Coding 3
Mode extension                           : CM (complete main)
Format settings, Endianness              : Big
Codec ID                                 : 6
Duration                                 : 1h 28mn
Bit rate mode                            : Constant
Bit rate                                 : 448 Kbps
Channel(s)                               : 2 channels
Channel positions                        : Front: L R
Sampling rate                            : 48.0 KHz
Bit depth                                : 16 bits
Compression mode                         : Lossy
Delay relative to video                  : -226ms
Stream size                              : 284 MiB (12%)
Language                                 : German

Text #1
ID                                       : 204 (0xCC)-100
Menu ID                                  : 28107 (0x6DCB)
Format                                   : Teletext
Language                                 : German

Text #2
ID                                       : 205 (0xCD)
Menu ID                                  : 28107 (0x6DCB)
Format                                   : DVB Subtitle
Codec ID                                 : 6
Delay relative to video                  : 3s 532ms
Language                                 : German

Menu
ID                                       : 200 (0xC8)
Menu ID                                  : 28107 (0x6DCB)
Duration                                 : 1h 28mn
List                                     : 201 (0xC9) (MPEG Video) / 202 (0xCA) (MPEG Audio, German) / 203 (0xCB) (MPEG Audio) / 204 (0xCC) () / 205 (0xCD) (DVB Subtitle, German) / 206 (0xCE) (AC-3, German) / 2171 (0x87B) () / 2178 (0x882) ()
Language                                 :  / German /  /  / German / German


https://mega.co.nz/#!UlcXDYCD!Dd125A4e3wyc6SIglsZ0F2y6ggFpg6Hshl2EII55uwI

Return to “Verified Off-Topic”

Who is online

Users browsing this forum: No registered users and 1 guest