[RREL] Diabolo menthe (1977)

User avatar
ghost
Site Admin
Posts: 3490
Likes:
Joined: Sun Mar 07, 2004 1:00 am

[RREL] Diabolo menthe (1977)

Postby ghost » Sun Jan 08, 2006 12:38 am  35 likes

Diabolo menthe AKA Peppermint Soda

[Image]

Here's a charming, realistic look at two sisters (Eleonore Klarwein and Odile Michel), thirteen and fifteen years of age, and their lives in France during the school year of 1963. No real plot is to be found, instead a slice-of-life commentary; subjects include trouble at school, wearing the in-clothing, dating, sadistic teachers, divorced parents, disagreements with mom and dad.

Although the middle gets a little confusing if you haven't been paying close attention to the characters' names, this is a fine debut by director Diane Kurys that manages to capture the confusion and awkwardness of early adolescence from the female perspective, which is a feat seldom tackled.


Like this post to see ed2k links  [706.29 Mb]

http://www.imdb.com/title/tt0075939/
billanben
Posts: 1396
Likes:
Joined: Tue Feb 07, 2006 1:00 am

Re: [RREL] Diabolo menthe (1977)

Postby billanben » Sat Apr 08, 2006 12:26 pm  0 likes

Totally ot, mostly schoolies, very pretty and good acting.

Debaser a MUST HAVE !!
User avatar
ARTHORIUS
Posts: 3709
Likes:
Joined: Sun Mar 26, 2006 1:00 am

Re: [RREL] Diabolo menthe (1977)

Postby ARTHORIUS » Sat Jan 13, 2007 2:52 pm  0 likes

I WAS MISSED THIS...FORTUNATELY I'VE VIEWED A REVIEW ON LOSTMOVIESARCHIVES...THX FOR THIS :thumbsup
household
Posts: 141
Likes:
Joined: Sun Dec 24, 2006 1:00 am

Re: [RREL] Diabolo menthe (1977)

Postby household » Sun Feb 25, 2007 6:43 pm  0 likes

This looks great.

Thanks.
RichardFleischer
Posts: 102
Likes:
Joined: Thu Nov 29, 2012 7:09 pm

Re: [RREL] Diabolo menthe (1977)

Postby RichardFleischer » Wed Jan 02, 2013 1:22 pm  1 likes

User avatar
Phuzzy4242
Site Admin
Posts: 6625
Likes:
Joined: Sun Aug 23, 2009 1:00 am

Re: [RREL] Diabolo menthe (1977)

Postby Phuzzy4242 » Wed Jan 02, 2013 2:16 pm  0 likes

Thanks for the link to subs. I'm "language challenged". :lol:
User avatar
starfish21
Posts: 3376
Likes:
Joined: Tue May 23, 2006 1:00 am

Re: [RREL] Diabolo menthe (1977)

Postby starfish21 » Wed Jan 02, 2013 6:28 pm  0 likes

They don't match the version i've got,which is a slightly smaller filesize than this one.


can anyone post a mediainfo of this movie?
User avatar
yoko
Posts: 631
Likes:
Joined: Sat Aug 27, 2011 3:40 am

Re: [RREL] Diabolo menthe (1977)

Postby yoko » Wed Jan 02, 2013 9:24 pm  1 likes

starfish21 wrote:can anyone post a mediainfo of this movie?

Code: Select all

General
Complete name                            : Diabolo.Menthe.-.1977.-.Eléonore.Klarwein.-.Dominique.Lavanant.-.Yves.Rénier.-.Par.M@i.avi
Format                                   : AVI
Format/Info                              : Audio Video Interleave
File size                                : 706 MiB
Duration                                 : 1h 36mn
Overall bit rate                         : 1 021 Kbps
Writing library                          : VirtualDub build 16297/release

Video
ID                                       : 0
Format                                   : MPEG-4 Visual
Format settings, BVOP                    : No
Format settings, QPel                    : No
Format settings, GMC                     : No warppoints
Format settings, Matrix                  : Default (H.263)
Codec ID                                 : XVID
Codec ID/Hint                            : XviD
Duration                                 : 1h 36mn
Bit rate                                 : 900 Kbps
Width                                    : 576 pixels
Height                                   : 432 pixels
Display aspect ratio                     : 4:3
Frame rate                               : 25.000 fps
Color space                              : YUV
Chroma subsampling                       : 4:2:0
Bit depth                                : 8 bits
Scan type                                : Progressive
Compression mode                         : Lossy
Bits/(Pixel*Frame)                       : 0.145
Stream size                              : 622 MiB (88%)

Audio
ID                                       : 1
Format                                   : MPEG Audio
Format version                           : Version 1
Format profile                           : Layer 3
Mode                                     : Joint stereo
Codec ID                                 : 55
Codec ID/Hint                            : MP3
Duration                                 : 1h 36mn
Bit rate mode                            : Constant
Bit rate                                 : 112 Kbps
Channel(s)                               : 2 channels
Sampling rate                            : 44.1 KHz
Compression mode                         : Lossy
Stream size                              : 77.3 MiB (11%)
Alignment                                : Split accross interleaves
Interleave, duration                     : 40 ms (1.00 video frame)
Interleave, preload duration             : 500 ms
User avatar
ptguardian
Posts: 4479
Likes:
Joined: Wed Sep 17, 2008 1:00 am

Re: [RREL] Diabolo menthe (1977)

Postby ptguardian » Thu Jan 03, 2013 1:11 am  0 likes

starfish21 wrote:They don't match the version i've got,which is a slightly smaller filesize than this one.


can anyone post a mediainfo of this movie?

Were you looking for something in particular? My version is the DVD ;)
User avatar
starfish21
Posts: 3376
Likes:
Joined: Tue May 23, 2006 1:00 am

Re: [RREL] Diabolo menthe (1977)

Postby starfish21 » Thu Jan 03, 2013 10:37 am  0 likes

i was wondering if mine could be considered an upgrade,and also if it would be worthwhile adjusting the timings on the subs.

Return to “France”

Who is online

Users browsing this forum: No registered users and 2 guests