[REL] Home (2008)

anton
Posts: 14
Likes:
Joined: Mon Jun 19, 2006 1:00 am

[REL] Home (2008)

Postby anton » Thu Jun 04, 2009 2:00 am  0 likes

This is the #1 on my wish list, probably the best thing that has come from France since Demi Tarif!

http://www.rarefilmfinder.com/showfilm.php?id=20056

http://ikarusvpn.wordpress.com/2009/02/ ... ula-meier/

Broadcast details:
- Markiza, June 5, 23:55 (time zone may differ). Movie is listed as "Domov".

I have tried to get a key installed to decode this channel the entire evening, but so far I've been unable to get it to work... So if someone can receive it, PLEASE PLEASE PLEASE record it!


I have found a rip, but the quality is very low.
http://www.zona-movies.com/home-2008-dv ... -t717.html
User avatar
ptguardian
Posts: 4479
Likes:
Joined: Wed Sep 17, 2008 1:00 am

Re: [REL] Home (2008)

Postby ptguardian » Thu Jun 04, 2009 7:35 am  0 likes

if you type in Ursula Meier in emule search you will find a few copies with tons of sources. hopefully they are better quality than what you have. hope this helps

:)
FLL
Posts: 2191
Likes:
Joined: Mon Aug 28, 2006 1:00 am

Re: [REL] Home (2008)

Postby FLL » Thu Jun 04, 2009 9:39 am  0 likes

The file you linked to is not really what most would call "very low quality", it is a typical 1CD rip (692.61 MB, WS, XViD, ~900kbps video, 93 min). Italian rip btw. No subs though :(

But I can understand why you want might better. There is a 1.4GB XviD rip on eMule, though that's not confirmed.

A good quality pure digital Satrip would certainly be nice, hopefully someone can get it, but this late with what may not be a common channel, I don't know. Even if someone doesn't get it now, this will get released here with what's available and it will be on people's radars for when a better version comes along, so thanks for bringing it up!
User avatar
popdrome
Posts: 1527
Likes:
Joined: Sat Mar 25, 2006 1:00 am

Re: [REL] Home (2008)

Postby popdrome » Thu Jun 04, 2009 11:16 pm  10 likes

Watched it, and found it somewhat disappointing.

Anyhow, this link
Like this post to see ed2k links  [692.61 Mb]

Is verified a good rip, although like FLL said, dubbed in italian, which is no problem for me.

As this now is verified - this can be moved to [REL] France
User avatar
Quickone
Posts: 655
Likes:
Joined: Sat Apr 29, 2006 1:00 am

Re: [REL] Home (2008)

Postby Quickone » Fri Jun 05, 2009 2:43 am  0 likes

It's actually the same copy as the Rapid share I think. Rapid share is good enough imho
FLL
Posts: 2191
Likes:
Joined: Mon Aug 28, 2006 1:00 am

Re: [REL] Home (2008)

Postby FLL » Fri Jun 05, 2009 2:45 am  0 likes

popdrome, that is the same one anton had and the same one I mentioned, and I would have made a release... except that this was originally a TV Announce which is still pending for another day or so. I'm not going to hijack it when there is a possibility for a high quality TVcap, so I am leaving this here a bit longer before moving it.

Plus by then I might even have have enough of the larger option to verify it.
User avatar
idler
Posts: 1107
Likes:
Joined: Sat Apr 01, 2006 1:00 am

Re: [REL] Home (2008)

Postby idler » Fri Jun 05, 2009 3:35 pm  10 likes

What about that one?

Like this post to see ed2k links  [1.28 Gb]

Format : AVI
Format/Info : Audio Video Interleave
Format profile : OpenDML
File size : 1.28 GiB
Duration : 1h 33mn
Overall bit rate : 1 953 Kbps
Writing application : VirtualDubMod 1.4.13
Writing library : VirtualDub build 14328/release

Video
Format : MPEG-4 Visual
Format profile : Streaming Video@L1
Format settings, BVOP : Yes
Format settings, QPel : No
Format settings, GMC : No warppoints
Format settings, Matrix : Default
Codec ID : XVID
Codec ID/Hint : XviD
Duration : 1h 33mn
Bit rate : 1 718 Kbps
Width : 704 pixels
Height : 384 pixels
Display aspect ratio : 16/9
Frame rate : 25.000 fps
Resolution : 24 bits
Colorimetry : 4:2:0
Scan type : Progressive
Bits/(Pixel*Frame) : 0.254
Stream size : 1.13 GiB (88%)
Writing library : XviD 1.1.2 (UTC 2006-11-01)

Audio
Format : MPEG Audio
Format version : Version 1
Format profile : Layer 3
Codec ID : 55
Codec ID/Hint : MP3
Bit rate mode : Constant
Bit rate : 224 Kbps
Channel(s) : 2 channels
Sampling rate : 44.1 KHz
Resolution : 16 bits
Video delay : 26ms
Stream size : 150 MiB (11%)
Alignment : Split accross interleaves
Interleave, duration : 40 ms (1.00 video frame)
Interleave, preload duration : 500 ms



[Image]

Also Italian dubbed...
on "Release", for anyone interested...
FLL
Posts: 2191
Likes:
Joined: Mon Aug 28, 2006 1:00 am

Re: [REL] Home (2008)

Postby FLL » Mon Jun 08, 2009 5:38 pm  13 likes

Thanks popdrome, idler! Idler's version was the one I meant when I said there was a "1.4GB rip" on eMule, I got confused about the size.

Here's one more DVDRip, in the original French:
Like this post to see ed2k links  [700.08 Mb]

Moving to REL.
User avatar
ghost
Site Admin
Posts: 3488
Likes:
Joined: Sun Mar 07, 2004 1:00 am

Re: [REL] Home (2008)

Postby ghost » Fri Jun 12, 2009 10:32 am  0 likes

thanks... looks interesting :cool

I will download all versions and decide afterwards ;)
Rich
Posts: 2824
Likes:
Joined: Sat Feb 21, 2004 1:00 am

Re: [REL] Home (2008)

Postby Rich » Thu Aug 27, 2009 11:07 pm  19 likes

FLL wrote:Thanks popdrome, idler! Idler's version was the one I meant when I said there was a "1.4GB rip" on eMule, I got confused about the size.

Here's one more DVDRip, in the original French:
Like this post to see ed2k links  [700.08 Mb]

Moving to REL.


more info...

COLDKINO@FH wrote:[Image]

http://www.imdb.com/title/tt1319569/

Director:
Ursula Meier
Cast:
Isabelle Huppert ... Marthe
Olivier Gourmet ... Michel
Adélaïde Leroux ... Judith
Madeleine Budd ... Marion
Kacey Mottet Klein... Julien

Runtime: 98 min
Country: Switzerland | France | Belgium
Language: French
Color: Color

Rural France, the present. Marthe (Isabelle Huppert), Michel (Olivier Gourmet) and their three children live in a house that sits on the edge of an abandoned motorway. When the authorities decide to open the motorway after 10 years of neglect rural idyll comes face to face with urban progress.

Trailer
[youtube]OnNH_SpAaeI[/youtube]

[nfo]AVI File Details
========================================
Name.........: Home 2008 French Dvdrip Xvid-Sts.avi
Filesize.....: 700 MB (or 716,884 KB or 734,089,216 bytes)
Runtime......: 01:33:41 (140,536 fr)
Video Codec..: XviD
Video Bitrate: 910 kb/s
Audio Codec..: 0x0055(MP3) ID'd as MPEG-1 Layer 3
Audio Bitrate: 128 kb/s (64/ch, stereo) CBR
Frame Size...: 640x352 (1.82:1) [=20:11][/nfo]
[Image]
[Image]
[Image]
[Image]

Like this post to see ed2k links  [700.08 Mb]
Eng subs:
http://www.opensubtitles.org/en/subtitl ... 92/home-en

Return to “France”

Who is online

Users browsing this forum: No registered users and 2 guests