[REL] Vincent et moi (1990)

Rich
Posts: 2821
Likes:
Joined: Sat Feb 21, 2004 1:00 am

[REL] Vincent et moi (1990)

Post by Rich »   0 likes

Vincent et moi (1990)

[Image]

[Image]

[Image]
While sketching one day, 13 year old Jo encounters a mysterious art dealer who buys a few of her drawings and commissions her to do some more. Some time thereafter she reads a news story about a million dollar sale of some drawings of a young Vincent Van Gogh. She enlists the aid of some friends and heads to Amsterdam in search of the mystery man. Or, should she go to 19th century Arles in search of Vincent himself? Written by Fryingham
http://www.imdb.com/title/tt0081721/

hmm never heard of this one, i dont think :think interesting :)
Rich
Posts: 2821
Likes:
Joined: Sat Feb 21, 2004 1:00 am

Re: [REQ] Vincent et moi (1990)

Post by Rich »   0 likes

haha thought he looked familiar he was the bad guy out of Bad Boys lol

http://www.imdb.com/name/nm0001409/
ferdi111
Posts: 769
Likes:
Joined: Sun Oct 21, 2012 7:10 pm

Re: [REQ] Vincent et moi (1990)

Post by ferdi111 »   2 likes

Yes, this is a reply to very old request but better later than never

Mediainfo:

Code: Select all

General
Complete name                            :DVD4.Vincent et Moi.avi
Format                                   : AVI
Format/Info                              : Audio Video Interleave
Format profile                           : OpenDML
File size                                : 1.49 GiB
Duration                                 : 1h 39mn
Overall bit rate                         : 2 142 Kbps
Writing application                      : Lavf51.12.1

Video
ID                                       : 0
Format                                   : xvid
Codec ID                                 : xvid
Duration                                 : 1h 39mn
Bit rate                                 : 2 000 Kbps
Width                                    : 720 pixels
Height                                   : 540 pixels
Display aspect ratio                     : 4:3
Frame rate                               : 23.976 fps
Bits/(Pixel*Frame)                       : 0.215
Stream size                              : 1.39 GiB (93%)

Audio
ID                                       : 1
Format                                   : MPEG Audio
Format version                           : Version 1
Format profile                           : Layer 3
Mode                                     : Joint stereo
Mode extension                           : MS Stereo
Codec ID                                 : 55
Codec ID/Hint                            : MP3
Duration                                 : 1h 39mn
Bit rate mode                            : Constant
Bit rate                                 : 128 Kbps
Channel(s)                               : 2 channels
Sampling rate                            : 44.1 KHz
Compression mode                         : Lossy
Stream size                              : 91.0 MiB (6%)
Alignment                                : Aligned on interleaves
Interleave, duration                     : 26 ms (0.63 video frame)
Screenshots:
[Image]
[Image]

In French. No subs.

Downliad:

Code: Select all

https://uloz.to/!vVx2ggobB/dvd4-vincent-et-moi-avi
User avatar
Phuzzy4242
Site Admin
Posts: 7686
Likes:
Joined: Sun Aug 23, 2009 1:00 am

Re: [REQ] Vincent et moi (1990)

Post by Phuzzy4242 »   0 likes

ferdi111 wrote:Yes, this is a reply to very old request but better later than never
It's always cool when an old request is finally found. Hopefully someone will download this soon and release it on eMule. Thanks, ferdi.
User avatar
jezevex
Posts: 1644
Likes:
Joined: Sun Jun 05, 2011 1:00 am

Re: [REQ] Vincent et moi (1990)

Post by jezevex »   16 likes

User avatar
Phuzzy4242
Site Admin
Posts: 7686
Likes:
Joined: Sun Aug 23, 2009 1:00 am

Re: [REL] Vincent et moi (1990)

Post by Phuzzy4242 »   0 likes

ferdi111 and jezevex for the win! Thanks! :thumbsup
User avatar
popdrome
Global Moderator
Posts: 2241
Likes:
Joined: Sat Mar 25, 2006 1:00 am

Re: [REL] Vincent et moi (1990)

Post by popdrome »   0 likes

Great, thank you both!

Don't go quietly into the night.
User avatar
omg
Posts: 104
Likes:
Joined: Tue Sep 27, 2011 3:00 am

Re: [REL] Vincent et moi (1990)

Post by omg »   13 likes

User avatar
ARTHORIUS
Posts: 3718
Likes:
Joined: Sun Mar 26, 2006 1:00 am

Re: [REL] Vincent et moi (1990)

Post by ARTHORIUS »   0 likes

Any other "info" for downloading this movie? Loooooooooooooolllll
ONE RING TO BRING EM ALL
Post Reply