[REL] Le Petit garçon (1995)

zebra
Posts: 60
Likes:
Joined: Tue May 25, 2010 1:00 am

[REL] Le Petit garçon (1995)

Post by zebra »   0 likes

Le Petit garçon, (France) (1995)Director: Pierre Granier-Deferre
Starring: Stanislas Crevillén, Audrey Dupont, Sophie Galibert, Cyrille Le Goaziou, Gaylord Le Goaziou
Synopsis: Touching story of the boy who kept sincere belief in kind human feelings after difficult ordeals.[Image]

http://www.imdb.com/title/tt0288169/
User avatar
Quickone
Posts: 685
Likes:
Joined: Sat Apr 29, 2006 1:00 am

Re: [REQ] Le Petit garçon (1995)

Post by Quickone »   11 likes

Like this post to see ed2k links  [700.67 Mb]

Here you go (It's on eMule all you had to do was search), It should be the right one I've downloaded this before.

Fix your post please. Follow the guidelines.
zebra
Posts: 60
Likes:
Joined: Tue May 25, 2010 1:00 am

Re: [REQ] Le Petit garçon (1995)

Post by zebra »   0 likes

merci pour ce un fantôme,,Les gros problèmes pour un garçon comme il est...thank you
User avatar
loverboy
Posts: 1832
Likes:
Joined: Sun Sep 24, 2006 1:00 am

Re: [REL] Le Petit garçon (1995)

Post by loverboy »   23 likes

Not the most inspiring release here so time for a bit more info & an upgrade with English subs.
During World War II, a French family decide to hide a Jewish family in their house although the area is occupied by the Germans. Things get even worse when they have to house a Nazi general in their house.
The focus of the story is on François (Stanislas Crevillén) the house proprietor´s young son who lives a beautiful friendship with Georgi, the little Jew girl who lives secretly in his house.
[Image][Image][Image][Image][Image]
[Image][Image][Image][Image][Image]
[Image][Image][Image][Image][Image]

General
Complete name : Le Petit Garçon 1995 isoRip loverboy.mp4
Format : MPEG-4
Format profile : Base Media / Version 2
Codec ID : mp42
File size : 1.51 GiB
Duration : 1h 40mn
Overall bit rate mode : Variable
Overall bit rate : 2 160 Kbps

Video
ID : 1
Format : AVC
Format/Info : Advanced Video Codec
Format profile : Main@L3.0
Format settings, CABAC : Yes
Format settings, ReFrames : 1 frame
Codec ID : avc1
Codec ID/Info : Advanced Video Coding
Duration : 1h 40mn
Bit rate mode : Variable
Bit rate : 1 997 Kbps
Width : 720 pixels
Height : 308 pixels
Display aspect ratio : 2.35:1
Frame rate mode : Constant
Frame rate : 25.000 fps
Color space : YUV
Chroma subsampling : 4:2:0
Bit depth : 8 bits
Scan type : Progressive
Bits/(Pixel*Frame) : 0.360
Stream size : 1.40 GiB (92%)
Writing library : x264 core

Audio
ID : 2
Format : AAC
Format/Info : Advanced Audio Codec
Format profile : LC
Codec ID : 40
Duration : 1h 40mn
Bit rate mode : Variable
Bit rate : 160 Kbps
Maximum bit rate : 204 Kbps
Channel(s) : 2 channels
Channel positions : Front: L R
Sampling rate : 48.0 KHz
Compression mode : Lossy
Stream size : 115 MiB (7%)

The source print quality is a bit soft but I'm guessing this can still be viewed as an improvement. Ripped from a DVDR posted at TheWildBoys so usual thanks.

Like this post to see ed2k links  [1.51 Gb]

English subs.

Like this post to see ed2k links  [42.6 Kb]
Like this post to see ed2k links  [2.74 Mb]

lb
User avatar
emuler
Posts: 4596
Likes:
Joined: Sun Apr 02, 2006 1:00 am

Re: [REL] Le Petit garçon (1995)

Post by emuler »   0 likes

Thanks, lb. I missed this the first time around. Thanks, too, for the subs.
ferdi111
Posts: 752
Likes:
Joined: Sun Oct 21, 2012 7:10 pm

Re: [REL] Le Petit garçon (1995)

Post by ferdi111 »   1 likes

Code: Select all

https://www.uloz.to/!jMnWpCYfV/le-petit-garcon-avi
Post Reply