[REL] L'age de raison (2010)

User avatar
starfish21
Posts: 3376
Likes:
Joined: Tue May 23, 2006 1:00 am

[REL] L'age de raison (2010)

Post by starfish21 »   19 likes

Admin Note: Split from Help for these....in 2011.

http://www.imdb.com/title/tt1594503/

file specs
Spoiler:

Format : AVI
Format/Info : Audio Video Interleave
File size : 700 MiB
Duration : 1h 29mn
Overall bit rate : 1 093 Kbps
Writing application : Nandub v1.0rc2
Writing library : Nandub build 1853/release

Video
ID : 0
Format : MPEG-4 Visual
Format profile : Advanced Simple@L5
Format settings, BVOP : 1
Format settings, QPel : No
Format settings, GMC : No warppoints
Format settings, Matrix : Default (H.263)
Codec ID : XVID
Codec ID/Hint : XviD
Duration : 1h 29mn
Bit rate : 941 Kbps
Width : 640 pixels
Height : 272 pixels
Display aspect ratio : 2.35:1
Frame rate : 23.976 fps
Color space : YUV
Chroma subsampling : 4:2:0
Bit depth : 8 bits
Scan type : Progressive
Compression mode : Lossy
Bits/(Pixel*Frame) : 0.225
Stream size : 602 MiB (86%)
Writing library : XviD 1.2.1 (UTC 2008-12-04)

Audio
ID : 1
Format : MPEG Audio
Format version : Version 1
Format profile : Layer 3
Mode : Joint stereo
Mode extension : MS Stereo
Codec ID : 55
Codec ID/Hint : MP3
Duration : 1h 29mn
Bit rate mode : Variable
Bit rate : 144 Kbps
Channel(s) : 2 channels
Sampling rate : 48.0 KHz
Compression mode : Lossy
Stream size : 89.4 MiB (13%)
Alignment : Aligned on interleaves
Interleave, duration : 24 ms (0.58 video frame)
Interleave, preload duration : 230 ms
Writing library : LAME3.98r
Encoding settings : -m j -V 4 -q 3 -lowpass 17.5 --abr 144
note: the screencaps are from an earlier download with hardcoded dutch subs [Image] and not from the one i'm releasing here.


[Image][Image][Image]

[Image][Image][Image]

[Image][Image][Image]

[Image][Image][Image]

[Image][Image]

original french language,no subs

Like this post to see ed2k links  [699.71 Mb]

note: the screencaps are from an earlier download with hardcoded dutch subs and not from the one i posted.


or this,found with search on emule
Like this post to see ed2k links  [1.36 Gb]
FLL
Posts: 2191
Likes:
Joined: Mon Aug 28, 2006 1:00 am

Re: [REL] L'age de raison (2010)

Post by FLL »   0 likes

[Image]
"Dear me. Today I am seven years old and I'm writing you this letter to help you remember the promises I made when I was 7, and also to remind you of what I want to become..." Thus begins the letter that Margaret, a successful business-woman, receives on her fortieth birthday...
This centres on Margaret (Marceau), a "working girl" who manages her career with steely determination. But on her 40th birthday, a provincial solicitor sends her some old, forgotten letters she wrote to herself when she was seven, the age of reason. Re-reading them one by one, she plunges back into hidden memories that upset all her certainties and cast doubt on her life choices. For she has become the opposite of what she hoped as a child.
Thanks starfish! :clap
And thanks to ARTHORIUS for finding this. :clap
Moved to REL from Art's request thread.
User avatar
ARTHORIUS
Posts: 3717
Likes:
Joined: Sun Mar 26, 2006 1:00 am

Re: [REL] L'age de raison (2010)

Post by ARTHORIUS »   0 likes

Glad than i can help the family ;)
BTW tyvm :onfire :heart :blush
BizarreLoveTriangle
Posts: 1627
Likes:
Joined: Sat Sep 19, 2009 1:00 am

Re: [REL] L'age de raison (2010)

Post by BizarreLoveTriangle »   0 likes

Wow, this looks like a very cute movie :heart

Thanks Art and Starfish :thumbsup

BTW, I also downloaded the file with hardcoded Dutch subs, because I understand Dutch better than French.
User avatar
vidman49
Posts: 398
Likes:
Joined: Sat Feb 05, 2011 1:00 am

Re: [REL] L'age de raison (2010)

Post by vidman49 »   0 likes

Looks good. I downloaded it but will wait to watch it until I can find English subs. THANKS!!!
User avatar
starfish21
Posts: 3376
Likes:
Joined: Tue May 23, 2006 1:00 am

Re: [REL] L'age de raison (2010)

Post by starfish21 »   5 likes

User avatar
vidman49
Posts: 398
Likes:
Joined: Sat Feb 05, 2011 1:00 am

Re: [REL] L'age de raison (2010)

Post by vidman49 »   2 likes

Thanks for the subs :bigups

I get so much more of of a movie with them.
User avatar
ARTHORIUS
Posts: 3717
Likes:
Joined: Sun Mar 26, 2006 1:00 am

Re: [REL] L'age de raison (2010)

Post by ARTHORIUS »   0 likes

I am not yet in the age of reason loooool :heart
User avatar
ghost
Site Admin
Posts: 6573
Likes:
Joined: Sun Mar 07, 2004 1:00 am

Re: [REL] L'age de raison (2010)

Post by ghost »   0 likes

hehe ART....

and thanks for the english subs :dance
User avatar
Pardal2008
Posts: 341
Likes:
Joined: Wed Feb 22, 2012 10:23 pm

Re: [REL] L'age de raison (2010)

Post by Pardal2008 »   0 likes

Thank you starfish21
nice movie ;)
Pardal
All the little girls are in love only to me
Post Reply