[REL] La lune et le téton (1994)

zebra
Posts: 60
Likes:
Joined: Tue May 25, 2010 1:00 am

[REL] La lune et le téton (1994)

Postby zebra » Tue May 10, 2011 2:06 pm  0 likes

Teta y la luna, La (Spain / France) (1994)

Also Known As:

La teta i la lluna
La teta y la luna
La lune et le téton
The Tit and the Moon
A Teta E a Lua
Mell és a hold
Meme ve ay
La tetta e la luna
Tissi ja kuu
Титька и луна

Director: J.J. Bigas Luna
Starring: Biel Durán
Synopsis: A child does not stand the idea of having a new brother and dreams about drinking milk from the breasts of his mother again. The child asks the moon to bring him a tit only for him. - IMDb

[Image]je le veux en fr svp
User avatar
idler
Posts: 1107
Likes:
Joined: Sat Apr 01, 2006 1:00 am

Re: [REL] La lune et le téton (1994)

Postby idler » Tue May 10, 2011 4:10 pm  0 likes

Sounds terrific. Several versions on eMule, Mommie!
User avatar
Phuzzy4242
Site Admin
Posts: 6751
Likes:
Joined: Sun Aug 23, 2009 1:00 am

Re: [REL] La lune et le téton (1994)

Postby Phuzzy4242 » Tue May 10, 2011 8:51 pm  0 likes

Seriously zebra, do you even bother to use search? idler is entirely right, there are several versions on eMule which you could have found if you'd even tried.

Side note - stars Mathilda May who starred in 1985's Lifeforce almost the entire movie sans clothes. IMPRESSIVE architecture.
User avatar
ptguardian
Posts: 4479
Likes:
Joined: Wed Sep 17, 2008 1:00 am

Re: [REL] La lune et le téton (1994)

Postby ptguardian » Tue May 10, 2011 9:19 pm  0 likes

User avatar
idler
Posts: 1107
Likes:
Joined: Sat Apr 01, 2006 1:00 am

Re: [REL] La lune et le téton (1994)

Postby idler » Fri May 13, 2011 1:32 pm  2 likes

Definitely not a single little girl in it!

[Image] [Image]
[Image] [Image]

Like this post to see ed2k links  [699.40 Mb]

Format : AVI
Format/Info : Audio Video Interleave
File size : 699 MiB
Duration : 1h 26mn
Overall bit rate : 1 126 Kbps
Writing application : Nandub v1.0rc2
Writing library : Nandub build 1852/release

Video
Format : MPEG-4 Visual
Format profile : Streaming Video@L1
Format settings, BVOP : Yes
Format settings, QPel : No
Format settings, GMC : No warppoints
Format settings, Matrix : Default
Muxing mode : Packed bitstream
Codec ID : XVID
Codec ID/Hint : XviD
Duration : 1h 26mn
Bit rate : 938 Kbps
Width : 640 pixels
Height : 272 pixels
Display aspect ratio : 2.35
Frame rate : 25.000 fps
Resolution : 24 bits
Colorimetry : 4:2:0
Scan type : Progressive
Bits/(Pixel*Frame) : 0.216
Stream size : 583 MiB (83%)
Writing library : XviD 1.0.3 (UTC 2004-12-20)

Audio
Format : MPEG Audio
Format version : Version 1
Format profile : Layer 3
Codec ID : 55
Codec ID/Hint : MP3
Duration : 1h 26mn
Bit rate mode : Variable
Bit rate : 175 Kbps
Channel(s) : 2 channels
Sampling rate : 48.0 KHz
Resolution : 16 bits
Stream size : 109 MiB (16%)
Alignment : Aligned on interleaves
Interleave, duration : 24 ms (0.60 video frame)
Interleave, preload duration : 300 ms
Writing library : LAME3.93
Encoding settings : VBR (mtrh)
FLL
Posts: 2191
Likes:
Joined: Mon Aug 28, 2006 1:00 am

Re: [REL] La lune et le téton (1994)

Postby FLL » Fri May 13, 2011 2:16 pm  0 likes

Thanks zebra and (especially) idler! :bigups

Lots of subs at http://www.opensubtitles.org/en/search/ ... uageid-all
I am sure something there will work. I have my eMule turned off this week, next week I will get this file and check if nobody else does.

http://www.imdb.com/title/tt0111403/

zebra should have posted this two days earlier, on Mother's Day!

Return to “France”

Who is online

Users browsing this forum: memomoo and 2 guests