[REL] La mal-aimée (1995)

User avatar
ARTHORIUS
Posts: 3712
Likes:
Joined: Sun Mar 26, 2006 1:00 am

[REL] La mal-aimée (1995)

Post by ARTHORIUS »   0 likes

Strange this movie not appear here...so follow the links ;)

Only RFF says 1996 imdb 1995

http://rarefilmfinder.com/showfilm.php?id=929

http://www.imdb.com/title/tt0199742/

There's no plot then i cannot help you.
rousseau
Posts: 91
Likes:
Joined: Sat May 19, 2007 1:00 am

Re: [REL] La mal-aimée (1995)

Post by rousseau »   0 likes

User avatar
ptguardian
Posts: 4479
Likes:
Joined: Wed Sep 17, 2008 1:00 am

Re: [REL] La mal-aimée (1995)

Post by ptguardian »   0 likes

very nice clip rousseau :dance

Do you have the entire film?

Avez-vous tout le film?
rousseau
Posts: 91
Likes:
Joined: Sat May 19, 2007 1:00 am

Re: [REL] La mal-aimée (1995)

Post by rousseau »   0 likes

Oui J'ai le film entier, ça va être assez long pour le transfert en rapidshare 3.92 GO
User avatar
ARTHORIUS
Posts: 3712
Likes:
Joined: Sun Mar 26, 2006 1:00 am

Re: [REL] La mal-aimée (1995)

Post by ARTHORIUS »   0 likes

rousseau wrote:https://rapidshare.com/files/2080722202 ... _AIMEE.mpg

Oui J'ai le film entier, ça va être assez long pour le transfert en rapidshare 3.92 GO
Wow rousseau this is a very good news...nice the clip it seen the OT scene referred on RFF...

now we waitin the full movie :onfire :icon_1dancingban :thumbsup
User avatar
ptguardian
Posts: 4479
Likes:
Joined: Wed Sep 17, 2008 1:00 am

Re: [REL] La mal-aimée (1995)

Post by ptguardian »   0 likes

rousseau has this movie and says he can transfer via rapidshare.

at 3.92gigs it is too much for me. anyone else want him to post it and provide a rip later?
User avatar
Phuzzy4242
Site Admin
Posts: 7686
Likes:
Joined: Sun Aug 23, 2009 1:00 am

Re: [REL] La mal-aimée (1995)

Post by Phuzzy4242 »   84 likes

User avatar
starfish21
Posts: 3376
Likes:
Joined: Tue May 23, 2006 1:00 am

Re: [REL] La mal-aimée (1995)

Post by starfish21 »   135 likes

Complete name :LA_MAL_AIMEE.mp4
Format : MPEG-4
Format profile : Base Media
Codec ID : isom
File size : 1.35 GiB
Duration : 1h 23mn
Overall bit rate : 2 327 Kbps
Encoded date : UTC 2011-05-23 17:52:34
Tagged date : UTC 2011-05-23 17:52:34
Writing application : Lavf51.12.1

Video
ID : 1
Format : MPEG-4 Visual
Format profile : Simple@L1
Format settings, BVOP : No
Format settings, QPel : No
Format settings, GMC : No warppoints
Format settings, Matrix : Default (H.263)
Codec ID : 20
Duration : 1h 23mn
Bit rate mode : Variable
Bit rate : 2 263 Kbps
Width : 766 pixels
Height : 576 pixels
Display aspect ratio : 4:3
Frame rate mode : Constant
Frame rate : 25.000 fps
Color space : YUV
Chroma subsampling : 4:2:0
Bit depth : 8 bits
Scan type : Progressive
Compression mode : Lossy
Bits/(Pixel*Frame) : 0.205
Stream size : 1.32 GiB (97%)
Writing library : Lavc51.40.4
Encoded date : UTC 2011-05-23 17:52:34
Tagged date : UTC 2011-05-23 17:52:34

Audio
ID : 2
Format : AAC
Format/Info : Advanced Audio Codec
Format profile : LC
Codec ID : 40
Duration : 1h 23mn
Bit rate mode : Variable
Bit rate : 59.0 Kbps
Channel(s) : 2 channels
Channel positions : Front: L R
Sampling rate : 44.1 KHz
Compression mode : Lossy
Stream size : 35.1 MiB (3%)
Encoded date : UTC 2011-05-23 17:52:34
Tagged date : UTC 2011-05-23 17:52:34






[Image][Image]

[Image][Image]

[Image][Image]

[Image][Image]

[Image][Image]

[Image][Image]


Like this post to see ed2k links  [1.35 Gb]
User avatar
ARTHORIUS
Posts: 3712
Likes:
Joined: Sun Mar 26, 2006 1:00 am

Re: [REL] La mal-aimée (1995)

Post by ARTHORIUS »   0 likes

Moved to REL and maaaaaaaaaaaany thanks starfish :onfire :onfire :onfire
Post Reply