[REL] The French Kissers aka Les beaux gosses (2009)

User avatar
starfish21
Posts: 3376
Likes:
Joined: Tue May 23, 2006 1:00 am

[REL] The French Kissers aka Les beaux gosses (2009)

Postby starfish21 » Fri Jun 10, 2011 6:09 pm  8 likes

Complete name :The French Kissers 2009 (Les beaux gosses).avi


This destined for cult status flick is essentially a French American Pie or Superbad. It has pubescent boys obsessed with sex, local girls who said lads have no chance with (or do they?) and uncomfortable situations aplenty. It doesn't do anything overly original, and the story arc is predictable, but that doesn't matter. It is bloody hilarious. Sure, it has patches of unfunny areas, but when it hits the mark you'll be cackling until tears roll down your cheeks.

The awkward moments – like the boys getting caught perving on a neighbour - draw out a chuckle here and there, though the real hearty laughs are primarily induced from the smaller, subtler parts of the film benefitting from the nuanced comic performances delivered by its young, pimply cast. Vincent Lacoste makes Herve a naturalistic and relatable adolescent whilst Anthony Sonigo is more over-the-top as his ultra-libidinous mate Camel. There is also a side-splitting turn from Noemie Lvovsky as Herve's unabashed mother who has an unseemly, yet surprisingly never disturbing, interest in her son's sex life. The bit where she witnesses Herve snogging for the first time is one of many highlights – her reaction is completely and utterly priceless.

Writers Riad Sattouf (who also directed) and Marc Syrigas deserve plenty of credit too; their script has some undoubtedly memorable dialogue and interactions. A canteen scene where an inexplicably-cool blind boy chats up a naive girl offers one of the finest pick-up lines put to celluloid. Not to mention the deadpan reactions from Herve's group when they hear the school bully has died. It are these moments where the film shines and makes you forget about its numerous faults - the cultural differences to Australia make for some oddities – elsewhere in the movie.

A guilty 90 minutes indeed.

http://www.imdb.com/title/tt1314237/

Hardcoded chinese and english subs
Format : AVI
Format/Info : Audio Video Interleave
File size : 1 007 MiB
Duration : 1h 24mn
Overall bit rate : 1 659 Kbps
Writing application : 3GP_Converter051103
Video
ID : 0
Format : AVC
Format/Info : Advanced Video Codec
Codec ID : H264
Duration : 1h 24mn
Bit rate : 1 582 Kbps
Width : 640 pixels
Height : 352 pixels
Display aspect ratio : 16:9
Frame rate : 25.000 fps
Color space : YUV
Chroma subsampling : 4:2:0
Bits/(Pixel*Frame) : 0.281
Stream size : 961 MiB (95%)

Audio
ID : 1
Format : MPEG Audio
Format version : Version 1
Format profile : Layer 3
Mode : Joint stereo
Mode extension : MS Stereo
Codec ID : 55
Codec ID/Hint : MP3
Duration : 1h 24mn
Bit rate mode : Constant
Bit rate : 64.0 Kbps
Channel(s) : 2 channels
Sampling rate : 44.1 KHz
Compression mode : Lossy
Stream size : 38.9 MiB (4%)
Alignment : Aligned on interleaves
Interleave, duration : 26 ms (0.65 video frame)
Writing library : LAMEUUULAME3.96.1





[Image][Image][Image][Image]

[Image][Image][Image][Image]

[Image][Image][Image][Image]

[Image][Image][Image][Image]

[Image][Image][Image][Image]

[Image][Image][Image][Image]

[Image]



Like this post to see ed2k links  [1007.33 Mb]

Return to “France”

Who is online

Users browsing this forum: No registered users and 3 guests