[REL] La Femme-Enfant (1980)

User avatar
starfish21
Posts: 3376
Likes:
Joined: Tue May 23, 2006 1:00 am

[REL] La Femme-Enfant (1980)

Postby starfish21 » Tue Sep 20, 2011 5:48 am  0 likes

another one i know i've seen but cant find.is it here already.
http://www.imdb.com/title/tt0083933/


[Image]

[Image]

[Image]

[Image]

[Image]
User avatar
Phuzzy4242
Site Admin
Posts: 6670
Likes:
Joined: Sun Aug 23, 2009 1:00 am

Re: is this already here?

Postby Phuzzy4242 » Tue Sep 20, 2011 6:19 am  1 likes

I don't recall seeing this one and I think I'd remember it. :heart
User avatar
sweetbay
Posts: 74
Likes:
Joined: Tue Dec 08, 2009 1:00 am

Re: is this already here?

Postby sweetbay » Tue Sep 20, 2011 3:56 pm  0 likes

:mrgreen:
Last edited by sweetbay on Thu Oct 06, 2011 2:12 am, edited 1 time in total.
User avatar
Phuzzy4242
Site Admin
Posts: 6670
Likes:
Joined: Sun Aug 23, 2009 1:00 am

Re: is this already here?

Postby Phuzzy4242 » Tue Sep 20, 2011 4:21 pm  1 likes

More info from http://www.rarefilmfinder.com/showfilm.php?id=2906

[Image]
Klaus Kinski has done a lot of strange things on screen, but he may never before have lain smiling as his face was whipped with colored petticoats or have ministered to a constipated cow. These are some memorable moments from Raphaele Billetdoux's ''La Femme Enfant,'' a film that is otherwise on the dull side. It depicts a half-formed love affair between an 11-year-old French girl and a mute, middleaged peasant gardener. And it follows a predictable pattern, even if its emphasis is distinctly on the strange.

That's not the entire synopsis summary - look at RFF for the rest.

I didn't find this on the mule - starfish, tell us you have it and will release it - it looks and sounds great!
User avatar
starfish21
Posts: 3376
Likes:
Joined: Tue May 23, 2006 1:00 am

Re: is this already here?

Postby starfish21 » Tue Sep 20, 2011 6:04 pm  0 likes

Phuzzy4242 wrote:


I didn't find this on the mule - starfish, tell us you have it and will release it - it looks and sounds great!


sure do,phuzz.

i'll put it in the french section.
User avatar
starfish21
Posts: 3376
Likes:
Joined: Tue May 23, 2006 1:00 am

[REL]LA FEMME-ENFANT(1980)

Postby starfish21 » Tue Sep 20, 2011 6:27 pm  137 likes

[REL] LA FEMME-ENFANT (1980)

http://www.imdb.com/title/tt0083933/
Spoiler:

Complete name : LA FEMME-ENFANT (FR 1980) TV-Rip JMD.avi
Format : AVI
Format/Info : Audio Video Interleave
File size : 1.81 GiB
Duration : 1h 36mn
Overall bit rate : 2 702 Kbps

Video
ID : 0
Format : MPEG-4 Visual
Format profile : Advanced Simple@L5
Format settings, BVOP : No
Format settings, QPel : No
Format settings, GMC : No warppoints
Format settings, Matrix : Default (MPEG)
Codec ID : XVID
Codec ID/Hint : XviD
Duration : 1h 36mn
Bit rate : 2 500 Kbps
Width : 1 024 pixels
Height : 576 pixels
Display aspect ratio : 16:9
Frame rate : 25.000 fps
Color space : YUV
Chroma subsampling : 4:2:0
Bit depth : 8 bits
Scan type : Progressive
Compression mode : Lossy
Bits/(Pixel*Frame) : 0.170
Stream size : 1.68 GiB (93%)
Writing library : XviD 62

Audio
ID : 1
Format : MPEG Audio
Format version : Version 1
Format profile : Layer 3
Codec ID : 55
Codec ID/Hint : MP3
Duration : 1h 36mn
Bit rate mode : Constant
Bit rate : 192 Kbps
Channel(s) : 2 channels
Sampling rate : 44.1 KHz
Compression mode : Lossy
Stream size : 132 MiB (7%)
Alignment : Split accross interleaves
Interleave, duration : 40 ms (1.00 video frame)


[Image] [Image] [Image] [Image]
[Image] [Image] [Image] [Image]
[Image] [Image] [Image] [Image]
[Image] [Image] [Image] [Image]
[Image] [Image] [Image] [Image]

Like this post to see ed2k links  [1.81 Gb]
User avatar
Phuzzy4242
Site Admin
Posts: 6670
Likes:
Joined: Sun Aug 23, 2009 1:00 am

Re: [REL]LA FEMME-ENFANT(1980)

Postby Phuzzy4242 » Tue Sep 20, 2011 9:17 pm  1 likes

Thank you starfish! She looks a little like a gelfling but she's cute. :dance
User avatar
starfish21
Posts: 3376
Likes:
Joined: Tue May 23, 2006 1:00 am

Re: [REL]LA FEMME-ENFANT(1980)

Postby starfish21 » Wed Sep 21, 2011 2:26 am  0 likes

Phuzzy4242 wrote:Thank you starfish! She looks a little like a gelfling but she's cute. :dance



i like it...."gelfling"
Last edited by Guest on Mon Feb 11, 2013 6:18 am, edited 1 time in total.
User avatar
Phuzzy4242
Site Admin
Posts: 6670
Likes:
Joined: Sun Aug 23, 2009 1:00 am

Re: [REL]LA FEMME-ENFANT(1980)

Postby Phuzzy4242 » Wed Sep 21, 2011 2:31 am  1 likes

starfish21 wrote:i lile it...."gelfling"

Remember "The Dark Crystal"? That kind of gelfling.

Hard to believe Pénélope Palmer was 15 when this movie was made - she looks much younger. She was in one other movie (that I know of) called Malevil in 1981, but from what I've read about it, it's not an FLM film at all, and not real good.
User avatar
starfish21
Posts: 3376
Likes:
Joined: Tue May 23, 2006 1:00 am

Re: [REL]LA FEMME-ENFANT(1980)

Postby starfish21 » Wed Sep 21, 2011 5:42 am  0 likes

i got the dark crystal connection right away,one of my favourites.the best of jim henson's creations.

Return to “France”

Who is online

Users browsing this forum: No registered users and 3 guests