[REL] La Nouvelle Guerre des Boutons (2011)

User avatar
ptguardian
Posts: 4479
Likes:
Joined: Wed Sep 17, 2008 1:00 am

[REL] La Nouvelle Guerre des Boutons (2011)

Postby ptguardian » Sat Dec 17, 2011 2:03 am  0 likes

La Nouvelle Guerre des Boutons
http://www.imdb.com/title/tt1837587/

[Image]



If you think you are experiencing Déjà vu, you are.

Thats right to add confusion to the War of the Buttons saga there are Two versions coming out next month. :eyecrazy

This one and La guerre des boutons 2011

I look forward to seeing them both. :cool
User avatar
ptguardian
Posts: 4479
Likes:
Joined: Wed Sep 17, 2008 1:00 am

Re: [REQ] La Nouvelle Guerre des Boutons (2011)

Postby ptguardian » Tue Jan 10, 2012 1:42 am  0 likes

This is a stream of a screener that was released today. Looks good, has a few watermarks here and there.


<Admin edit - link to megavideo disabled>
User avatar
jezevex
Posts: 990
Likes:
Joined: Sun Jun 05, 2011 1:00 am

Re: [REQ] La Nouvelle Guerre des Boutons (2011)

Postby jezevex » Wed Jan 11, 2012 2:40 am  0 likes

DD Link:
http://www.megaupload.com/?d=K6BKEHZ1

I think that it makes no sense to RELease it or to try to find the ED2K link for THIS file.
It´s watchable, but it has watermarks and poor quality.
User avatar
ptguardian
Posts: 4479
Likes:
Joined: Wed Sep 17, 2008 1:00 am

Re: [REQ] La Nouvelle Guerre des Boutons (2011)

Postby ptguardian » Wed Jan 11, 2012 4:32 am  0 likes

jezevex wrote:I think that it makes no sense to RELease it or to try to find the ED2K link for THIS file.
It´s watchable, but it has watermarks and poor quality.

I agree. It is a 'screener' and a proper dvd or blu-ray rip will be out soon enough. :D

Poor quality? No worse than a lot of dvdrips out there. Only thing I dislike is the display is too small to enjoy on a decent size screen. At 608x256 it is very sharp, any bigger the quality starts to degrade.

By the way you can download the original on the right side of the stream I posted. It is an option. ;)
Last edited by ptguardian on Thu Jan 19, 2012 9:49 pm, edited 1 time in total.
User avatar
ptguardian
Posts: 4479
Likes:
Joined: Wed Sep 17, 2008 1:00 am

Re: [REQ] La Nouvelle Guerre des Boutons (2011)

Postby ptguardian » Mon Jan 16, 2012 8:58 pm  0 likes

No sign of a blu-ray rip yet. If somebody wants the dvd here are the links courtesy of the confused boys(the wild boys). http://thewildboys.flickzone1.info/viewtopic.php?id=651

also now on torrent http://thepiratebay.org/torrent/6966844 ... LT-Release :)

and boysinger just upped his uncompressed dvd http://thepiratebay.se/torrent/7026059/ ... 9_DVD9_rus

:D
User avatar
ptguardian
Posts: 4479
Likes:
Joined: Wed Sep 17, 2008 1:00 am

Re: [REQ] La Nouvelle Guerre des Boutons (2011)

Postby ptguardian » Sun Feb 12, 2012 12:50 am  0 likes

Blu-ray rip http://fenopy.eu/torrent/la+nouvelle+gu ... NzkwMzc5Ng also I added boysingers link for the dvd above with English subs.
User avatar
starfish21
Posts: 3376
Likes:
Joined: Tue May 23, 2006 1:00 am

Re: [REQ] La Nouvelle Guerre des Boutons (2011)

Postby starfish21 » Sun Feb 12, 2012 11:44 am  13 likes

[Image]

[Image]

[Image]

[Image]

[Image]

[Image]

[Image]

[Image]

[Image]

[Image]

[Image]

[Image]

[Image]

[Image]

[Image]

[Image]


Unique ID : 182736898474923512738892390723916043747 (0x8979D8B25F0FA8F5960A55A5FD2695E3)
Complete name : La.Nouvelle.Guerre.Des.Boutons.720p.mkv
Format : Matroska
File size : 4.36 GiB
Duration : 1h 39mn
Overall bit rate : 6 275 Kbps
Encoded date : UTC 2012-01-17 19:53:21
Writing application : mkvmerge v4.9.1 ('Ich will') built on Jul 11 2011 23:53:15
Writing library : libebml v1.2.1 + libmatroska v1.1.1

Video
ID : 1
Format : AVC
Format/Info : Advanced Video Codec
Format profile : High@L4.1
Format settings, CABAC : Yes
Format settings, ReFrames : 5 frames
Codec ID : V_MPEG4/ISO/AVC
Duration : 1h 39mn
Bit rate : 4 765 Kbps
Width : 1 280 pixels
Height : 544 pixels
Display aspect ratio : 2.35:1
Frame rate : 24.000 fps
Color space : YUV
Chroma subsampling : 4:2:0
Bit depth : 8 bits
Scan type : Progressive
Bits/(Pixel*Frame) : 0.285
Stream size : 3.23 GiB (74%)
Writing library : x264 core 119 r2106 07efeb4
Encoding settings : cabac=1 / ref=5 / deblock=1:0:0 / analyse=0x3:0x113 / me=umh / subme=7 / psy=1 / psy_rd=1.00:0.15 / mixed_ref=1 / me_range=16 / chroma_me=1 / trellis=1 / 8x8dct=1 / cqm=0 / deadzone=21,11 / fast_pskip=0 / chroma_qp_offset=-3 / threads=12 / sliced_threads=0 / nr=0 / decimate=1 / interlaced=0 / bluray_compat=0 / constrained_intra=0 / bframes=3 / b_pyramid=2 / b_adapt=1 / b_bias=0 / direct=1 / weightb=1 / open_gop=0 / weightp=2 / keyint=250 / keyint_min=24 / scenecut=40 / intra_refresh=0 / rc_lookahead=40 / rc=2pass / mbtree=1 / bitrate=4765 / ratetol=1.0 / qcomp=0.60 / qpmin=0 / qpmax=69 / qpstep=4 / cplxblur=20.0 / qblur=0.5 / ip_ratio=1.40 / aq=1:1.00
Language : French

Audio
ID : 2
Format : DTS
Format/Info : Digital Theater Systems
Codec ID : A_DTS
Duration : 1h 39mn
Bit rate mode : Constant
Bit rate : 1 510 Kbps
Channel(s) : 6 channels
Channel positions : Front: L C R, Side: L R, LFE
Sampling rate : 48.0 KHz
Bit depth : 24 bits
Compression mode : Lossy
Stream size : 1.05 GiB (24%)
Title : French DTS 1509kbps
Language : French


It's a big file,but excellent quality.The 1080 version is 8.7gb
There should be a lot of sources,it's absolutely flying.
no subs i'm afraid.

Like this post to see ed2k links  [4.36 Gb]
User avatar
ptguardian
Posts: 4479
Likes:
Joined: Wed Sep 17, 2008 1:00 am

Re: [REQ] La Nouvelle Guerre des Boutons (2011)

Postby ptguardian » Sun Feb 12, 2012 1:40 pm  0 likes

Now you are playing the game again. Very nice. Thank you starfish

:icon_cool4
User avatar
ptguardian
Posts: 4479
Likes:
Joined: Wed Sep 17, 2008 1:00 am

Re: [REQ] La Nouvelle Guerre des Boutons (2011)

Postby ptguardian » Sun Feb 12, 2012 1:58 pm  0 likes

starfish21 wrote:no subs i'm afraid.

Hopefully the scene will do there usual conversion of the subs from the dvd. It should be just a timing issue. Soon they should be available. :pray

:)
User avatar
starfish21
Posts: 3376
Likes:
Joined: Tue May 23, 2006 1:00 am

Re: [REQ] La Nouvelle Guerre des Boutons (2011)

Postby starfish21 » Sun Feb 12, 2012 2:12 pm  0 likes

ptguardian wrote:Now you are playing the game again. Very nice. Thank you starfish

:icon_cool4


i really wish you would stop implying i'm doing something wrong here.

Return to “France”

Who is online

Users browsing this forum: No registered users and 2 guests