[REL] Fleurs de sang (2002)

User avatar
starfish21
Posts: 3376
Likes:
Joined: Tue May 23, 2006 1:00 am

[REL] Fleurs de sang (2002)

Post by starfish21 »   84 likes

Fleurs de sang (2002)-Flowers of Blood

http://www.imdb.com/title/tt0284117/

In custody after she murders her middle aged photographer lover, a fourteen year old Pam reflects back on the bohemian life she spent with her mother Lily, a free spirited cabaret performer. Lily tried to elevate her stripper performances from the level of erotic spectacle to artistic expression as she dragged her young daughter from nightclub to nightclub and hotel to hotel, but ultimately lost her at nine to the Paris child authorities.

[Image]

[Image]

[Image]

[Image]

[Image]

[Image]

[Image]

[Image]

[Image]

[Image]

[Image]

[Image]

[Image]

[Image]

[Image]

[Image]

[Image]

[Image]

[Image]

[Image]

[Image]

[Image]

[Image]

[Image]

[Image]

[Image]

[Image]


[Image] [Image] [Image] [Image]

[Image] [Image] [Image] [Image]

[Image] [Image] [Image] [Image]

[Image] [Image] [Image] [Image]

[Image] [Image] [Image] [Image]

[Image] [Image] [Image] [Image]

[Image] [Image] [Image]

General
Complete name :Fleurs de sang 2002.avi
Format : AVI
Format/Info : Audio Video Interleave
File size : 1.02 GiB
Duration : 1h 40mn
Overall bit rate : 1 459 Kbps
Writing application : VirtualDubMod 1.5.10.2 (build 2540/release)
Writing library : VirtualDubMod build 2540/release

Video
ID : 0
Format : MPEG-4 Visual
Format profile : Advanced Simple@L5
Format settings, BVOP : 2
Format settings, QPel : No
Format settings, GMC : No warppoints
Format settings, Matrix : Default (MPEG)
Codec ID : XVID
Codec ID/Hint : XviD
Duration : 1h 40mn
Bit rate : 1 321 Kbps
Width : 704 pixels
Height : 384 pixels
Display aspect ratio : 16:9
Frame rate : 25.000 fps
Color space : YUV
Chroma subsampling : 4:2:0
Bit depth : 8 bits
Scan type : Progressive
Compression mode : Lossy
Bits/(Pixel*Frame) : 0.195
Stream size : 948 MiB (91%)
Writing library : XviD 1.2.0.dev47 (UTC 2006-11-01)

Audio
ID : 1
Format : MPEG Audio
Format version : Version 1
Format profile : Layer 3
Codec ID : 55
Codec ID/Hint : MP3
Duration : 1h 40mn
Bit rate mode : Constant
Bit rate : 128 Kbps
Channel(s) : 2 channels
Sampling rate : 44.1 KHz
Compression mode : Lossy
Stream size : 91.8 MiB (9%)
Alignment : Split accross interleaves
Interleave, duration : 40 ms (1.00 video frame)
Interleave, preload duration : 500 ms
Writing library : LAME3.95
Encoding settings : -m s -V 4 -q 2 -lowpass 16 -b 128


Like this post to see ed2k links  [1.02 Gb]
User avatar
Phuzzy4242
Site Admin
Posts: 7686
Likes:
Joined: Sun Aug 23, 2009 1:00 am

Re: [REL]Fleurs de sang (2002)

Post by Phuzzy4242 »   0 likes

Wow! :eyecrazy
User avatar
kev
Site Admin
Posts: 3536
Likes:
Joined: Tue Jan 17, 2006 1:00 am

Re: [REL]Fleurs de sang (2002)

Post by kev »   0 likes

YIKES!!
[Image]

Is she really going to town on a penis pastry? :eyecrazy

Kids, these days!!

Thanks, starfish.. GREAT find!

kev.
User avatar
Phuzzy4242
Site Admin
Posts: 7686
Likes:
Joined: Sun Aug 23, 2009 1:00 am

Re: [REL]Fleurs de sang (2002)

Post by Phuzzy4242 »   0 likes

Thanks starfish, both the younger and older versions of the girl got equal time and were well-played. The mother was less than mature herself - artistic expression indeed.
User avatar
Conny473
Posts: 9
Likes:
Joined: Mon Dec 19, 2011 6:39 pm

Re: [REL]Fleurs de sang (2002)

Post by Conny473 »   0 likes

Thanks for the hint !
User avatar
vidman49
Posts: 398
Likes:
Joined: Sat Feb 05, 2011 1:00 am

Re: [REL]Fleurs de sang (2002)

Post by vidman49 »   34 likes

Here is a subs file for the movie

Like this post to see ed2k links  [44.8 Kb]
User avatar
Phuzzy4242
Site Admin
Posts: 7686
Likes:
Joined: Sun Aug 23, 2009 1:00 am

Re: [REL]Fleurs de sang (2002)

Post by Phuzzy4242 »   0 likes

Thanks vidman, I always like to have subs.
User avatar
HEGEMONY
Posts: 20
Likes:
Joined: Thu Mar 01, 2012 10:14 pm

Re: [REL]Fleurs de sang (2002)

Post by HEGEMONY »   0 likes

[Image]

OMG :shock:
User avatar
ARTHORIUS
Posts: 3717
Likes:
Joined: Sun Mar 26, 2006 1:00 am

Re: [REL] Fleurs de sang (2002)

Post by ARTHORIUS »   0 likes

Too bad she use a 2 pieces swinsuit :icon_frown2
ONE RING TO BRING EM ALL
User avatar
ghost
Site Admin
Posts: 6568
Likes:
Joined: Sun Mar 07, 2004 1:00 am

Re: [REL] Fleurs de sang (2002)

Post by ghost »   44 likes

Post Reply