[REL] Ninth Street Chronicles (2006) short [Canada]

Short films and movies available on-line at Vimeo, YouTube and similar sites can be posted here once they have an ed2k link.
User avatar
For An Angel
Posts: 655
Likes:
Joined: Sat Jan 02, 2010 1:00 am

[REL] Ninth Street Chronicles (2006) short [Canada]

Postby For An Angel » Mon May 28, 2012 2:55 pm  48 likes

http://www.imdb.com/title/tt0827772/
http://www.rarefilmfinder.com/showfilm.php?id=24415

It is summer in the 1980s, and ten-year-old Sara's whole world is her front yard and the park at the end of the street. With her parents consumed in domestic battles, Sara experiences life uncensored. She glimpses sex, both gorgeous and awful, and broken hearts, one of them, her own. When Sara's idea of fun gets her forbidden from everyone her own age, Sara finds her way into the lives of two older boys; boys who, like Sara, are ill-fitting neighborhood legends.


[Image][Image][Image][Image]
[Image][Image][Image][Image]
[Image][Image][Image][Image]
[Image][Image][Image][Image]

Like this post to see ed2k links  [113.90 Mb]

Spoiler:

General
Complete name : C:\Program Files\eMule\Incoming\Ninth Street Chronicles (2006 short film with Samantha Weinstein).mp4
Format : MPEG-4
Format profile : Base Media
Codec ID : isom
File size : 114 MiB
Duration : 27mn 20s
Overall bit rate mode : Variable
Overall bit rate : 582 Kbps
Encoded date : UTC 2010-03-29 00:49:02
Tagged date : UTC 2010-03-30 00:49:10

Video
ID : 1
Format : AVC
Format/Info : Advanced Video Codec
Format profile : High@L3.1
Format settings, CABAC : Yes
Format settings, ReFrames : 4 frames
Codec ID : avc1
Codec ID/Info : Advanced Video Coding
Duration : 27mn 20s
Bit rate : 480 Kbps
Maximum bit rate : 2 103 Kbps
Width : 640 pixels
Height : 424 pixels
Display aspect ratio : 3:2
Frame rate mode : Constant
Frame rate : 29.970 fps
Color space : YUV
Chroma subsampling : 4:2:0
Bit depth : 8 bits
Scan type : Progressive
Bits/(Pixel*Frame) : 0.059
Stream size : 92.0 MiB (81%)
Writing library : x264 core 72 r1217 5e9ae4c
Encoding settings : cabac=1 / ref=4 / deblock=1:0:0 / analyse=0x3:0x113 / me=hex / subme=7 / psy=1 / psy_rd=1.0:0.0 / mixed_ref=1 / me_range=16 / chroma_me=1 / trellis=1 / 8x8dct=1 / cqm=0 / deadzone=21,11 / chroma_qp_offset=-2 / threads=8 / nr=0 / decimate=1 / mbaff=0 / bframes=4 / b_pyramid=0 / b_adapt=1 / b_bias=0 / direct=3 / wpredb=1 / keyint=90 / keyint_min=30 / scenecut=40 / rc_lookahead=40 / rc=cbr / mbtree=1 / bitrate=480 / ratetol=1.0 / qcomp=0.60 / qpmin=10 / qpmax=51 / qpstep=4 / vbv_maxrate=720 / vbv_bufsize=2400 / ip_ratio=1.40 / aq=1:1.00
Encoded date : UTC 2010-03-29 00:49:02
Tagged date : UTC 2010-03-29 00:49:07

Audio
ID : 2
Format : AAC
Format/Info : Advanced Audio Codec
Format profile : LC
Codec ID : 40
Duration : 27mn 20s
Bit rate mode : Variable
Bit rate : 108 Kbps
Maximum bit rate : 161 Kbps
Channel(s) : 2 channels
Channel positions : Front: L R
Sampling rate : 44.1 KHz
Compression mode : Lossy
Stream size : 21.2 MiB (19%)
Encoded date : UTC 2010-03-29 00:49:04
Tagged date : UTC 2010-03-29 00:49:07

User avatar
Phuzzy4242
Site Admin
Posts: 6798
Likes:
Joined: Sun Aug 23, 2009 1:00 am

Re: [REL] Ninth Street Chronicles (2006 short film)

Postby Phuzzy4242 » Mon May 28, 2012 3:30 pm  0 likes

Cool, thanks FAA.

I LOL'd... :lol:
[Image]
User avatar
starfish21
Posts: 3376
Likes:
Joined: Tue May 23, 2006 1:00 am

Re: [REL] Ninth Street Chronicles (2006 short film)

Postby starfish21 » Mon May 28, 2012 5:53 pm  0 likes

more gingers....
User avatar
emuler
Posts: 4104
Likes:
Joined: Sun Apr 02, 2006 1:00 am

Re: [REL] Ninth Street Chronicles (2006 short film)

Postby emuler » Tue May 29, 2012 5:14 am  0 likes

Looks interesting. Thanks. :)

Return to “Shorts & Online Streaming Movies (All Countries)”

Who is online

Users browsing this forum: No registered users and 2 guests