[REL] Wild Birds (2010) short [USA]

Short films and movies available on-line at Vimeo, YouTube and similar sites can be posted here once they have an ed2k link.
User avatar
For An Angel
Posts: 656
Likes:
Joined: Sat Jan 02, 2010 1:00 am

[REL] Wild Birds (2010) short [USA]

Post by For An Angel »   23 likes

http://www.imdb.com/title/tt1618423/

I found this one after watching The Odd Life of Timothy Green (which was a wonderful movie, btw) starring Odeya Rush.
When two sisters run away into the woods to escape an abusive home, they soon learn that building a new life together may be more difficult than they had hoped.
[Image]

Like this post to see ed2k links  [151.41 Mb]
Spoiler:

General
Complete name : C:\Users\For An Angel\Downloads\eMule\Incoming\Wild Birds (2010 short film 7mins).mp4
Format : MPEG-4
Format profile : Base Media
Codec ID : isom
File size : 151 MiB
Duration : 7mn 57s
Overall bit rate mode : Variable
Overall bit rate : 2 659 Kbps
Encoded date : UTC 2011-10-21 22:53:30
Tagged date : UTC 2011-10-22 22:53:37

Video
ID : 1
Format : AVC
Format/Info : Advanced Video Codec
Format profile : High@L3.1
Format settings, CABAC : Yes
Format settings, ReFrames : 4 frames
Codec ID : avc1
Codec ID/Info : Advanced Video Coding
Duration : 7mn 57s
Bit rate : 2 499 Kbps
Maximum bit rate : 7 874 Kbps
Width : 1 280 pixels
Height : 720 pixels
Display aspect ratio : 16:9
Frame rate mode : Constant
Frame rate : 23.976 fps
Color space : YUV
Chroma subsampling : 4:2:0
Bit depth : 8 bits
Scan type : Progressive
Bits/(Pixel*Frame) : 0.113
Stream size : 142 MiB (94%)
Writing library : Vimeo Encoder
Encoded date : UTC 2011-10-21 22:53:30
Tagged date : UTC 2011-10-21 22:53:32

Audio
ID : 2
Format : AAC
Format/Info : Advanced Audio Codec
Format profile : LC
Codec ID : 40
Duration : 7mn 57s
Bit rate mode : Variable
Bit rate : 157 Kbps
Maximum bit rate : 186 Kbps
Channel(s) : 2 channels
Channel positions : Front: L R
Sampling rate : 44.1 KHz
Compression mode : Lossy
Stream size : 8.95 MiB (6%)
Encoded date : UTC 2011-10-21 22:53:32
Tagged date : UTC 2011-10-21 22:53:32
User avatar
Phuzzy4242
Site Admin
Posts: 7686
Likes:
Joined: Sun Aug 23, 2009 1:00 am

Re: [REL] Wild Birds (2010) short [USA]

Post by Phuzzy4242 »   1 likes

Cool, thanks FAA.
User avatar
emuler
Posts: 4599
Likes:
Joined: Sun Apr 02, 2006 1:00 am

Re: [REL] Wild Birds (2010) short [USA]

Post by emuler »   1 likes

Looks interesting. Thanks, FAA. :D
User avatar
ptguardian
Posts: 4479
Likes:
Joined: Wed Sep 17, 2008 1:00 am

Re: [REL] Wild Birds (2010) short [USA]

Post by ptguardian »   0 likes

August Fegley is great in this. :D

She also did a short Called Hannah Henri that came out recently. Too little screen time for a release I think but her role of a lesbian is cute.

Here is the video link for those interested. http://vimeo.com/54980950
Post Reply