[REL] Name of the Game (2006) short [USA]

Short films and movies available on-line at Vimeo, YouTube and similar sites can be posted here once they have an ed2k link.
User avatar
ptguardian
Posts: 4479
Likes:
Joined: Wed Sep 17, 2008 1:00 am

[REL] Name of the Game (2006) short [USA]

Post by ptguardian »   2 likes

The Name of the Game

[Image]

http://www.imdb.com/title/tt1667462/

http://vimeo.com/5568336

Embedding was disabled. Hopefully someone can find it streamed somewhere else. :(
User avatar
For An Angel
Posts: 656
Likes:
Joined: Sat Jan 02, 2010 1:00 am

Re: Name of the Game (2006) short USA

Post by For An Angel »   12 likes

Thanks PTG! I always had a thing for tomboys :blush

[Image]
July 14th 1947. A twelve year old girl swings for the fences as she seeks acceptance for her tomboy antics in this touching musical.
Like this post to see ed2k links  [43.43 Mb]
Spoiler:

General
Complete name : C:\Users\For An Angel\Downloads\eMule\Incoming\The Name of the Game (2006 short film 14mins).mp4
Format : MPEG-4
Format profile : Base Media / Version 2
Codec ID : mp42
File size : 43.4 MiB
Duration : 16mn 33s
Overall bit rate mode : Variable
Overall bit rate : 367 Kbps
Encoded date : UTC 2009-07-12 01:37:09
Tagged date : UTC 2009-07-12 01:37:09

Video
ID : 201
Format : AVC
Format/Info : Advanced Video Codec
Format profile : High@L3.1
Format settings, CABAC : Yes
Format settings, ReFrames : 4 frames
Codec ID : avc1
Codec ID/Info : Advanced Video Coding
Duration : 16mn 33s
Bit rate : 250 Kbps
Maximum bit rate : 873 Kbps
Width : 352 pixels
Height : 240 pixels
Display aspect ratio : 3:2
Frame rate mode : Constant
Frame rate : 29.970 fps
Standard : NTSC
Color space : YUV
Chroma subsampling : 4:2:0
Bit depth : 8 bits
Scan type : Progressive
Bits/(Pixel*Frame) : 0.099
Stream size : 29.6 MiB (68%)
Writing library : x264 core 67 r1171 2c7cb4c
Encoding settings : cabac=1 / ref=4 / deblock=1:0:0 / analyse=0x3:0x133 / me=hex / subme=6 / psy_rd=1.0:0.0 / mixed_ref=1 / me_range=16 / chroma_me=1 / trellis=1 / 8x8dct=1 / cqm=0 / deadzone=21,11 / chroma_qp_offset=-4 / threads=16 / nr=0 / decimate=1 / mbaff=0 / bframes=3 / b_pyramid=1 / b_adapt=1 / b_bias=0 / direct=3 / wpredb=1 / keyint=150 / keyint_min=30 / scenecut=40 / rc=2pass / bitrate=250 / ratetol=0.0 / qcomp=0.60 / qpmin=10 / qpmax=51 / qpstep=4 / cplxblur=20.0 / qblur=0.5 / ip_ratio=1.40 / pb_ratio=1.30 / aq=1:1.00
Encoded date : UTC 2009-07-12 01:37:09
Tagged date : UTC 2009-07-12 01:37:10

Audio
ID : 101
Format : AAC
Format/Info : Advanced Audio Codec
Format profile : LC
Codec ID : 40
Duration : 16mn 33s
Bit rate mode : Variable
Bit rate : 112 Kbps
Maximum bit rate : 347 Kbps
Channel(s) : 2 channels
Channel positions : Front: L R
Sampling rate : 44.1 KHz
Compression mode : Lossy
Stream size : 13.3 MiB (31%)
Encoded date : UTC 2009-07-12 01:37:09
Tagged date : UTC 2009-07-12 01:37:10
User avatar
emuler
Posts: 4596
Likes:
Joined: Sun Apr 02, 2006 1:00 am

Re: [REL] Name of the Game (2006) short [USA]

Post by emuler »   0 likes

Thanks, PTg and FAA. :D
User avatar
kev
Site Admin
Posts: 3536
Likes:
Joined: Tue Jan 17, 2006 1:00 am

Re: [REL] Name of the Game (2006) short [USA]

Post by kev »   0 likes

emuler wrote:Thanks, PTg and FAA. :D
I concur!! Many MANY thanks to you both!

kev.
Post Reply