[REL] The Life of Cardboard (2011) short [Australia]

Short films and movies available on-line at Vimeo, YouTube and similar sites can be posted here once they have an ed2k link.
User avatar
ptguardian
Posts: 4479
Likes:
Joined: Wed Sep 17, 2008 1:00 am

[REL] The Life of Cardboard (2011) short [Australia]

Postby ptguardian » Sat Apr 06, 2013 7:52 pm  2 likes

The Life of Cardboard

http://www.imdb.com/title/tt2125657/

Labeled as a teaser/promo but is a complete short film with a IMDb listing


http://youtu.be/vvE7_chIqMQ or http://vimeo.com/user1126142/life-of-cardboard

:D
User avatar
Phuzzy4242
Site Admin
Posts: 6705
Likes:
Joined: Sun Aug 23, 2009 1:00 am

Re: The Life of Cardboard (2011) short Australia

Postby Phuzzy4242 » Sat Apr 06, 2013 11:39 pm  13 likes

In HD

Spoiler:

General
Complete name : E:\MovieShare\Releases\Life of Cardboard, The - Visual Teaser (2011).mp4
Format : MPEG-4
Format profile : Base Media / Version 2
Codec ID : mp42
File size : 77.0 MiB
Duration : 7mn 36s
Overall bit rate mode : Variable
Overall bit rate : 1 416 Kbps
Encoded date : UTC 2011-07-26 15:03:23
Tagged date : UTC 2011-07-26 15:03:23
gsst : 0
gstd : 456320
gssd : B4A7DD4C8MH1365286202895337
gshh : r8---sn-jc47eu7k.c.youtube.com

Video
ID : 1
Format : AVC
Format/Info : Advanced Video Codec
Format profile : High@L3.1
Format settings, CABAC : Yes
Format settings, ReFrames : 1 frame
Codec ID : avc1
Codec ID/Info : Advanced Video Coding
Duration : 7mn 36s
Bit rate : 1 260 Kbps
Maximum bit rate : 3 936 Kbps
Width : 1 280 pixels
Height : 720 pixels
Display aspect ratio : 16:9
Frame rate mode : Constant
Frame rate : 25.000 fps
Color space : YUV
Chroma subsampling : 4:2:0
Bit depth : 8 bits
Scan type : Progressive
Bits/(Pixel*Frame) : 0.055
Stream size : 68.6 MiB (89%)
Tagged date : UTC 2011-07-26 15:03:25

Audio
ID : 2
Format : AAC
Format/Info : Advanced Audio Codec
Format profile : LC
Codec ID : 40
Duration : 7mn 36s
Bit rate mode : Variable
Bit rate : 151 Kbps
Maximum bit rate : 215 Kbps
Channel(s) : 2 channels
Channel positions : Front: L R
Sampling rate : 44.1 KHz
Compression mode : Lossy
Stream size : 8.23 MiB (11%)
Title : IsoMedia File Produced by Google, 5-11-2011
Encoded date : UTC 2011-07-26 15:03:23
Tagged date : UTC 2011-07-26 15:03:25


Like this post to see ed2k links  [77.05 Mb]

Return to “Shorts & Online Streaming Movies (All Countries)”

Who is online

Users browsing this forum: No registered users and 5 guests