[REL] Hilfe, ich bin ein Junge (2002)

Rich
Posts: 2824
Likes:
Joined: Sat Feb 21, 2004 1:00 am

[REL] Hilfe, ich bin ein Junge (2002)

Postby Rich » Wed Feb 25, 2004 7:33 pm  8 likes

Hilfe, ich bin ein Junge AKA Verzauberte Emma AKA Help, I'm a Boy! (2002)

[Image]

Synopsis:
11-year-old Emma doesn’t have an easy time of it: her mother always has high hopes for her – which means that everyone at school thinks she’s an awful swot – and to cap it all, her mean swimming instructor is determined by hook or by crook to turn her into an Olympic swimmer.

After having been put through the mill yet again by her beastly classmate, Mickey, Emma prays that night with all her heart that she might be someone else. Suddenly, magically, her wish is fulfilled. However, to her astonishment, she finds herself transformed into none other than Mickey. And what’s more, at the other end of town,Mickey finds out that he has somehow changed into Emma.

And so Emma is now stuck inside the body of a notorious lazybones whilst Mickey finds himself in the body of a girl everyone thinks is a boring goodygoody – an intolerable situation for both of them.Worse still, in three days Emma wants to try and win the swimming championships – but there’s no way she can do it inside Mickey’s body. Distraught, she turns to her classmate “Four-eye”, who has a bit of a psychic bent. After no end of turbulent twists and turns, the three children discover that the body-swap was caused by a mysterious book of spells. The trio set off to find the book’s owner, an ancient-looking man called Albert Tartov, who is the only one who can help return them back to their own bodies.But time’s running out, because the book says that if they don’t manage to swap back into their real bodies within 52 hours they will stay in those bodies forever . . . (Kinderfilmfest Berlin 2002)


Like this post to see ed2k links  [784.73 Mb]
Like this post to see ed2k links  [782.89 Mb]

Rich :)

http://www.imdb.com/title/tt0295003/
BizarreLoveTriangle
Posts: 1627
Likes:
Joined: Sat Sep 19, 2009 1:00 am

Re: [REL] Hilfe, ich bin ein Junge (2002)

Postby BizarreLoveTriangle » Sat Mar 12, 2011 2:40 am  10 likes

OK, here's my rip as promised. In fact, I did 2 rips at different bitrate, but there seems to be no significant quality difference.

Like this post to see ed2k links  [746.26 Mb]
Like this post to see ed2k links  [1.37 Gb]
Like this post to see ed2k links  [84.0 Kb]
User avatar
ptguardian
Posts: 4479
Likes:
Joined: Wed Sep 17, 2008 1:00 am

Re: [REL] Hilfe, ich bin ein Junge (2002)

Postby ptguardian » Sat Mar 12, 2011 5:20 am  0 likes

BizarreLoveTriangle wrote: I did 2 rips at different bitrate, but there seems to be no significant quality difference.


you won't see much difference on a monitor or small tv, but on a big screen it makes a great difference and it is very appreciated. :thumbsup


I am assuming this is the 4:3 original German language version?
BizarreLoveTriangle
Posts: 1627
Likes:
Joined: Sat Sep 19, 2009 1:00 am

Re: [REL] Hilfe, ich bin ein Junge (2002)

Postby BizarreLoveTriangle » Sat Mar 12, 2011 1:58 pm  0 likes

ptguardian wrote:you won't see much difference on a monitor or small tv, but on a big screen it makes a great difference

Well, I'm not sure...

ptguardian wrote:I am assuming this is the 4:3 original German language version?

Yes, the DVD format is 4:3 with black bars top and bottom, but the movie aspect is 1.88:1 (encoded 704x400, displayed 750x400). If the DVD had been done properly in 16:9 format, the resolution of the rip would be 704x544 (displayed 1001x544).
User avatar
starfish21
Posts: 3376
Likes:
Joined: Tue May 23, 2006 1:00 am

Re: [REL] Hilfe, ich bin ein Junge (2002)

Postby starfish21 » Sun Mar 13, 2011 5:00 pm  7 likes

my own rip from dvd.
english dub - not everyone's cup of tea but when there's no subs i'll take it.


Format : AVI
Format/Info : Audio Video Interleave
Format profile : OpenDML
File size : 1.20 GiB
Duration : 1h 36mn
Overall bit rate : 1 769 Kbps
Writing application : Magic0515

Video
ID : 0
Format : MPEG-4 Visual
Format profile : Advanced Simple@L4
Format settings, BVOP : No
Format settings, QPel : No
Format settings, GMC : No warppoints
Format settings, Matrix : Default (H.263)
Codec ID : XVID
Codec ID/Hint : XviD
Duration : 1h 36mn
Bit rate : 334 Kbps
Width : 640 pixels
Height : 360 pixels
Display aspect ratio : 16:9
Frame rate : 29.970 fps
Color space : YUV
Chroma subsampling : 4:2:0
Bit depth : 8 bits
Scan type : Progressive
Compression mode : Lossy
Bits/(Pixel*Frame) : 0.048
Stream size : 231 MiB (19%)
Writing library : Magic0432

Audio
ID : 1
Format : MPEG Audio
Format version : Version 1
Format profile : Layer 3
Mode : Joint stereo
Mode extension : MS Stereo
Codec ID : 55
Codec ID/Hint : MP3
Duration : 15mn 27s
Bit rate mode : Constant
Bit rate : 128 Kbps
Channel(s) : 2 channels
Sampling rate : 44.1 KHz
Compression mode : Lossy
Stream size : 14.1 MiB (1%)
Alignment : Aligned on interleaves
Interleave, duration : 34 ms (1.01 video frame)

Like this post to see ed2k links  [1.20 Gb]
BizarreLoveTriangle
Posts: 1627
Likes:
Joined: Sat Sep 19, 2009 1:00 am

Re: [REL] Hilfe, ich bin ein Junge (2002)

Postby BizarreLoveTriangle » Sun Mar 13, 2011 10:15 pm  0 likes

willow wrote:wow - you did it again - BLT will be sad

It's OK, starfish released a different version (English dub).
User avatar
ptguardian
Posts: 4479
Likes:
Joined: Wed Sep 17, 2008 1:00 am

Re: [REL] Hilfe, ich bin ein Junge (2002)

Postby ptguardian » Sun Mar 13, 2011 10:58 pm  0 likes

I have the English dub version DVD, but I also wanted a version with the original language. now if only we can merge the audio from BLT's to the 16/9. this is what I had in mind to begin with, but I have never tried it before.(not sure if I can with my software) :think
BizarreLoveTriangle
Posts: 1627
Likes:
Joined: Sat Sep 19, 2009 1:00 am

Re: [REL] Hilfe, ich bin ein Junge (2002)

Postby BizarreLoveTriangle » Mon Mar 14, 2011 12:50 am  0 likes

ptguardian wrote:I have the English dub version DVD, but I also wanted a version with the original language. now if only we can merge the audio from BLT's to the 16/9. this is what I had in mind to begin with, but I have never tried it before.(not sure if I can with my software) :think

NTSC has 480 lines instead of PAL's 576, so the estimated resolution of a 1.85:1 movie encoded in NTSC 16:9 format would be 704x448 (displayed 834x448), which isn't much higher than 704x400 of my PAL rip. Besides, there isn't anything to see in this movie anyway...
User avatar
ptguardian
Posts: 4479
Likes:
Joined: Wed Sep 17, 2008 1:00 am

Re: [REL] Hilfe, ich bin ein Junge (2002)

Postby ptguardian » Mon Mar 14, 2011 1:00 am  0 likes

good enough for me :cool I wish the movie industry would pick one resolution and stick with it from now on. most HDTV's are universal now and so should be the dvd and blu-ray format. someday perhaps :pray
User avatar
starfish21
Posts: 3376
Likes:
Joined: Tue May 23, 2006 1:00 am

Re: [REL] Hilfe, ich bin ein Junge (2002)

Postby starfish21 » Fri Apr 22, 2011 5:04 pm  7 likes


Return to “Germany”

Who is online

Users browsing this forum: No registered users and 1 guest