[RREL] Der Zehnte Sommer (2003)

Guest

Re: Der Zehnte Sommer (2003)

Postby Guest » Sun Mar 07, 2004 9:37 pm  0 likes

Both files do not play, maybe they need a certain codec or something :?

I do not know :(

Rich :)
User avatar
infiniter
Posts: 477
Likes:
Joined: Sun Feb 22, 2004 1:00 am

Re: Der Zehnte Sommer (2003)

Postby infiniter » Tue Mar 09, 2004 1:01 am  0 likes

Both are ZIP files, containing the real movie, but.... with password.

I'm currently working on getting the password. Will tell it here.
Rich
Posts: 2824
Likes:
Joined: Sat Feb 21, 2004 1:00 am

Re: Der Zehnte Sommer (2003)

Postby Rich » Tue Jul 27, 2004 3:46 pm  0 likes

Maybe someone can figure this out?

http://www.p2pworld.to/history/topic/79950-1.html

Instructions on how to get a password for Der Zehnte Sommer? :?

thanks, Rich :)
Guest

Re: Der Zehnte Sommer (2003)

Postby Guest » Wed Jul 28, 2004 1:32 am  0 likes

I already used a small program to decode a password from a zip file. Could take some time but is very effective. (Should take from 1 hour to 1 week... 8O )
Rich
Posts: 2824
Likes:
Joined: Sat Feb 21, 2004 1:00 am

Re: Der Zehnte Sommer (2003)

Postby Rich » Mon Sep 20, 2004 4:51 pm  0 likes

Do you know if these are password protected?
User avatar
infiniter
Posts: 477
Likes:
Joined: Sun Feb 22, 2004 1:00 am

Re: Der Zehnte Sommer (2003)

Postby infiniter » Sun Sep 26, 2004 11:56 am  0 likes

Hell wrote:I already used a small program to decode a password from a zip file. Could take some time but is very effective. (Should take from 1 hour to 1 week... 8O )

Seems like Hell is still on it. Looks like it's more a year than a week to decode.... :mrgreen:
Guest

Re: Der Zehnte Sommer (2003)

Postby Guest » Sun Sep 26, 2004 6:06 pm  0 likes

Maybe somebody else wants to try... Elcomsoft rulez!

hxxp://www.globalshareware.com/Utilitie ... covery.htm

dl, inst, sn:

ARCHPR-TBHW5SSMYGQS-GNGD56ZSWN7NZ4UG

Be aware that a brute force against a pw of complete ASCII-keys with more than 8 digits needs at least several hours!

Happy new year! LOL :twisted:
User avatar
Phuzzy4242
Site Admin
Posts: 6539
Likes:
Joined: Sun Aug 23, 2009 1:00 am

Re: Der Zehnte Sommer (2003)

Postby Phuzzy4242 » Sat Dec 17, 2011 9:50 pm  1 likes

Der Zehnte Sommer (2003) Germany
aka The Tenth Summer

http://www.rarefilmfinder.com/showfilm.php?id=14602
http://www.imdb.com/title/tt0358303/

A nine-year-old boy (Martin Stuhrk) named Kalli entertains a fantasy that he is the king of his neighborhood and starts his own zoo with the help of two of his friends (David Kotter, Pino Severino-Geysen) in the Summer of 1960. Unfortunately, his parents and the local priest often burst his bubble, especially when it comes to visiting a woman with a questionable reputation, who happens to be fond of Kalli and helps him care for his pet monkey on the sly, the zoo's official exhibit. Also, the mother of our hero's girlfriend (Michelle Barthel) isn't overly pleased with her daughter's choice of friends, tries to keep the kids apart. Might everything work out for the best by the time the ending credits roll?




Apparently this was released at one time (see lost and found...) but that thread ([REL] Tenth Summer (zehnte Sommer, Der)) seems to be gone now, probably because of the 2005 database crash. No eMule links found - anyone want to dig this one up and re-release it?
User avatar
starfish21
Posts: 3376
Likes:
Joined: Tue May 23, 2006 1:00 am

[REL]Der zehnte Sommer (2003)

Postby starfish21 » Sat Dec 17, 2011 10:29 pm  13 likes

http://www.imdb.com/title/tt0358303/
General

Complete name :Der.zehnte.Sommer.2003.avi
Format : AVI
Format/Info : Audio Video Interleave
File size : 1.14 GiB
Duration : 1h 35mn
Overall bit rate : 1 705 Kbps

Video
ID : 0
Format : MPEG-4 Visual
Format profile : Advanced Simple@L5
Format settings, BVOP : No
Format settings, QPel : No
Format settings, GMC : No warppoints
Format settings, Matrix : Default (MPEG)
Codec ID : XVID
Codec ID/Hint : XviD
Duration : 1h 35mn
Bit rate : 1 505 Kbps
Width : 1 024 pixels
Height : 576 pixels
Display aspect ratio : 16:9
Frame rate : 25.000 fps
Color space : YUV
Chroma subsampling : 4:2:0
Bit depth : 8 bits
Scan type : Progressive
Compression mode : Lossy
Bits/(Pixel*Frame) : 0.102
Stream size : 1.00 GiB (88%)
Writing library : XviD 1.1.2 (UTC 2006-11-01)

Audio
ID : 1
Format : MPEG Audio
Format version : Version 1
Format profile : Layer 3
Codec ID : 55
Codec ID/Hint : MP3
Duration : 1h 35mn
Bit rate mode : Constant
Bit rate : 192 Kbps
Channel(s) : 2 channels
Sampling rate : 44.1 KHz
Compression mode : Lossy
Stream size : 131 MiB (11%)
Alignment : Split accross interleaves
Interleave, duration : 80 ms (2.00 video frames)
Writing library : LAMELAME_MAJOR_VERSI

[Image] [Image] [Image]

[Image] [Image] [Image]

[Image] [Image] [Image]

[Image] [Image] [Image]

[Image] [Image] [Image]

[Image] [Image] [Image]

[Image]

Like this post to see ed2k links  [1.14 Gb]
Like this post to see ed2k links  [77.6 Kb]

:roll:

Return to “Germany”

Who is online

Users browsing this forum: No registered users and 2 guests