[REL] Hexe Lilli 2: Die Reise nach Mandolan (2011)

User avatar
ptguardian
Posts: 4479
Likes:
Joined: Wed Sep 17, 2008 1:00 am

[REL] Hexe Lilli 2: Die Reise nach Mandolan (2011)

Postby ptguardian » Sun Oct 16, 2011 9:17 pm  1 likes

Hexe Lilli: Die Reise nach Mandolan (2011)
http://www.imdb.com/title/tt1452293/
http://www.rarefilmfinder.com/showfilm.php?id=33107
Alina Freund http://www.rarefilmfinder.com/actor.php?id=10371
[Image]
Website http://www.reise-nach-mandolan.de/
Trailer

Dvd was released last month and says it has English subs. :D
The first movie was great and I am sure this one will have more great scenes with Alina Freund. :heart
production stills
[Image][Image][Image]
Last edited by ptguardian on Mon Oct 17, 2011 12:24 am, edited 2 times in total.
User avatar
starfish21
Posts: 3376
Likes:
Joined: Tue May 23, 2006 1:00 am

Re: [REQ] Hexe Lilli 2: Die Reise nach Mandolan (2011)

Postby starfish21 » Sun Oct 16, 2011 10:12 pm  29 likes

Complete name : Hexe Lilli 2 -Die Reise nach Mandolan (2011).avi
Format : AVI
Format/Info : Audio Video Interleave
File size : 1.07 GiB
Duration : 1h 27mn
Overall bit rate : 1 752 Kbps
Writing application : VirtualDubMod 1.5.10.2 (build 2540/release)
Writing library : VirtualDubMod build 2540/release

Video
ID : 0
Format : MPEG-4 Visual
Format profile : Advanced Simple@L5
Format settings, BVOP : 2
Format settings, QPel : No
Format settings, GMC : No warppoints
Format settings, Matrix : Default (H.263)
Codec ID : XVID
Codec ID/Hint : XviD
Duration : 1h 27mn
Bit rate : 1 294 Kbps
Width : 688 pixels
Height : 288 pixels
Display aspect ratio : 2.40:1
Frame rate : 25.000 fps
Color space : YUV
Chroma subsampling : 4:2:0
Bit depth : 8 bits
Scan type : Progressive
Compression mode : Lossy
Bits/(Pixel*Frame) : 0.261
Stream size : 809 MiB (74%)
Writing library : XviD 1.2.1 (UTC 2008-12-04)

Audio
ID : 1
Format : AC-3
Format/Info : Audio Coding 3
Mode extension : CM (complete main)
Codec ID : 2000
Duration : 1h 27mn
Bit rate mode : Constant
Bit rate : 448 Kbps
Channel(s) : 6 channels
Channel positions : Front: L C R, Side: L R, LFE
Sampling rate : 48.0 KHz
Bit depth : 16 bits
Compression mode : Lossy
Stream size : 280 MiB (26%)
Alignment : Split accross interleaves
Interleave, duration : 40 ms (1.00 video frame)
Interleave, preload duration : 500 ms

[Image]

[Image]

[Image]

[Image]

[Image]

[Image]

[Image]

[Image]

[Image]

[Image]

[Image]

[Image]



Like this post to see ed2k links  [1.07 Gb]
Like this post to see ed2k links  [79.5 Kb]
Like this post to see ed2k links  [8.52 Mb]

subs are both german and english,mpc plays either perfectly.
Last edited by Guest on Mon Oct 17, 2011 7:34 pm, edited 1 time in total.
User avatar
ptguardian
Posts: 4479
Likes:
Joined: Wed Sep 17, 2008 1:00 am

Re: [REQ] Hexe Lilli 2: Die Reise nach Mandolan (2011)

Postby ptguardian » Sun Oct 16, 2011 10:21 pm  0 likes

Thanks Starfish, very cool. :thumbsup
User avatar
Phuzzy4242
Site Admin
Posts: 6538
Likes:
Joined: Sun Aug 23, 2009 1:00 am

Re: [REL] Hexe Lilli 2: Die Reise nach Mandolan (2011)

Postby Phuzzy4242 » Sun Oct 16, 2011 10:55 pm  0 likes

Thanks starfish - moved to [REL]ease.
User avatar
kev
Site Admin
Posts: 2922
Likes:
Joined: Tue Jan 17, 2006 1:00 am

Re: [REL] Hexe Lilli 2: Die Reise nach Mandolan (2011)

Postby kev » Mon Oct 17, 2011 12:11 am  0 likes

Great job. Do like!

Thanks all for bringing this here!

kev.
User avatar
yoko
Posts: 629
Likes:
Joined: Sat Aug 27, 2011 3:40 am

Re: [REL] Hexe Lilli 2: Die Reise nach Mandolan (2011)

Postby yoko » Mon Oct 17, 2011 12:20 am  1 likes

Thanks starfish, this was quick :eyecrazy

I was just going to buy the DVD :blush
User avatar
ptguardian
Posts: 4479
Likes:
Joined: Wed Sep 17, 2008 1:00 am

Re: [REL] Hexe Lilli 2: Die Reise nach Mandolan (2011)

Postby ptguardian » Mon Oct 17, 2011 3:21 am  0 likes

[Image]

Good movie and subs match great. :cool1

I will buy the dvd when the price comes down..
User avatar
Pardal2008
Posts: 324
Likes:
Joined: Wed Feb 22, 2012 10:23 pm

Re: [REL] Hexe Lilli 2: Die Reise nach Mandolan (2011)

Postby Pardal2008 » Thu Jun 21, 2012 6:27 pm  0 likes

Thank you PTG and starfish.
Pardal
All the little girls are in love only to me
kumar1234567890
Posts: 1
Likes:
Joined: Sat Oct 06, 2012 5:02 pm

Re: [REL] Hexe Lilli 2: Die Reise nach Mandolan (2011)

Postby kumar1234567890 » Sat Oct 06, 2012 5:04 pm  0 likes

Thanks....
User avatar
emuler
Posts: 4104
Likes:
Joined: Sun Apr 02, 2006 1:00 am

Re: [REL] Hexe Lilli 2: Die Reise nach Mandolan (2011)

Postby emuler » Sat Oct 06, 2012 8:56 pm  0 likes

Thanks from me too. :D

Return to “Germany”

Who is online

Users browsing this forum: No registered users and 3 guests