[REL] Neue Chance zum Glück (TV 2011)

User avatar
starfish21
Posts: 3375
Likes:
Joined: Tue May 23, 2006 1:00 am

[REL] Neue Chance zum Glück (TV 2011)

Post by starfish21 »   37 likes

http://www.imdb.com/title/tt2109174/

not much info available on this ,if anyone fancies translating german they're welcome.

Die Mutter will nach Samoa. Der Vater will, nach Jahrzehnten als Entwicklungshelfer in Afrika, eigentlich nur seine
Ruhe. Die Tochter ruht in sich und einer heilen Welt: netter Mann, reizende Kinder, ein schöner Beruf als Hebamme.

google gives this...

The mother wants to Samoa. The father wants, after decades as an aid worker in Africa, actually its only
Resting. The daughter and resides in an ideal world: nice guy, charming children, a nice job as a midwife.

General
Unique ID : 250964187955736462500405184096351311842 (0xBCCDF1C7D23341DE9B35728DBFB857E2)
Complete name : Neue.Chance.zum.Gluck.2011.WS.PDTV.x264.mkv
Format : Matroska
File size : 694 MiB
Duration : 1h 26mn
Overall bit rate : 1 121 Kbps
Encoded date : UTC 2011-12-03 11:28:44
Writing application : mkvmerge v5.0.1 ('Es ist Sommer') built on Oct 9 2011 11:55:43
Writing library : libebml v1.2.2 + libmatroska v1.3.0

Video
ID : 1
Format : AVC
Format/Info : Advanced Video Codec
Format profile : High@L3.1
Format settings, CABAC : Yes
Format settings, ReFrames : 4 frames
Codec ID : V_MPEG4/ISO/AVC
Duration : 1h 26mn
Bit rate : 1 016 Kbps
Width : 720 pixels
Height : 576 pixels
Display aspect ratio : 16:9
Frame rate : 25.000 fps
Standard : PAL
Color space : YUV
Chroma subsampling : 4:2:0
Bit depth : 8 bits
Scan type : Progressive
Bits/(Pixel*Frame) : 0.098
Stream size : 601 MiB (87%)
Title : Neue Chance zum Glück
Writing library : x264 core 119 r2106 07efeb4
Encoding settings : cabac=1 / ref=3 / deblock=1:0:0 / analyse=0x3:0x113 / me=hex / subme=7 / psy=1 / psy_rd=1.00:0.00 / mixed_ref=1 / me_range=16 / chroma_me=1 / trellis=1 / 8x8dct=1 / cqm=0 / deadzone=21,11 / fast_pskip=1 / chroma_qp_offset=-2 / threads=3 / sliced_threads=0 / nr=0 / decimate=1 / interlaced=0 / bluray_compat=0 / constrained_intra=0 / bframes=3 / b_pyramid=2 / b_adapt=1 / b_bias=0 / direct=1 / weightb=1 / open_gop=0 / weightp=2 / keyint=250 / keyint_min=25 / scenecut=40 / intra_refresh=0 / rc_lookahead=40 / rc=2pass / mbtree=1 / bitrate=1016 / ratetol=1.0 / qcomp=0.60 / qpmin=0 / qpmax=69 / qpstep=4 / cplxblur=20.0 / qblur=0.5 / vbv_maxrate=17500 / vbv_bufsize=14000 / nal_hrd=none / ip_ratio=1.40 / aq=1:1.00

Audio
ID : 2
Format : Vorbis
Format settings, Floor : 1
Codec ID : A_VORBIS
Duration : 1h 26mn
Bit rate mode : Constant
Bit rate : 128 Kbps
Channel(s) : 2 channels
Sampling rate : 48.0 KHz
Compression mode : Lossy
Stream size : 79.2 MiB (11%)
Title : Neue Chance zum Glück
Writing library : libVorbis (Schaufenugget) (20101101 (Schaufenugget))
Language : German
------------------------------------------------------------------------------------------------------


[Image] [Image] [Image]

[Image] [Image] [Image]

[Image] [Image] [Image]

[Image] [Image] [Image]

[Image] [Image] [Image]



Like this post to see ed2k links  [693.59 Mb]
User avatar
Phuzzy4242
Site Admin
Posts: 7686
Likes:
Joined: Sun Aug 23, 2009 1:00 am

Re: [REL] Neue Chance zum Glück (TV 2011)

Post by Phuzzy4242 »   0 likes

Guest wrote:The mother wants to move to Samoa. The father, after decades as an aid worker in Africa, actually only wants peace.
The daughter is meditating quietly by herself and in a ideal world: nice guy, charming children, nice job as a midwife.
User avatar
rmt@36
Posts: 475
Likes:
Joined: Thu Jan 26, 2006 1:00 am

Re: [REL] Neue Chance zum Glück (TV 2011)

Post by rmt@36 »   0 likes

Very cute Girl, interesting movie

Thanks Starfish for bringing it to my attention
Post Reply