[REL] Pünktchen und Anton (1953)

User avatar
starfish21
Posts: 3376
Likes:
Joined: Tue May 23, 2006 1:00 am

[REL] Pünktchen und Anton (1953)

Postby starfish21 » Mon Apr 09, 2012 9:41 am  17 likes

Pünktchen und Anton(1953)

[Image]

[Image]

http://www.imdb.com/title/tt0046218/

Despite their social differences Luise, called Pünktchen, a girl from rich parentage befriends Anton, a boy who has to earn his own money in order to afford life for his sick mother and himself. Together they undergo different adventures, even preventing a theft in Pünktchens home.

[Image]

[Image]

[Image]

[Image]

[Image]

[Image]

[Image]

[Image]

[Image]

[Image]

[Image]

[Image]

[Image]

[Image]

[Image]

[Image]




[Image] [Image] [Image]

[Image] [Image] [Image]

[Image] [Image] [Image]

[Image] [Image] [Image]

[Image] [Image] [Image]

[Image] [Image] [Image]

General
Unique ID : 168348648403719580577546155723716462494 (0x7EA6C532C2870C1E037BA147C20E879E)
Complete name : Pünktchen und Anton.mkv
Format : Matroska
Format version : Version 2
File size : 1.39 GiB
Duration : 1h 26mn
Overall bit rate mode : Variable
Overall bit rate : 2 313 Kbps
Writing application : Lavf51.12.1
Writing library : Lavf51.12.1

Video
ID : 1
Format : AVC
Format/Info : Advanced Video Codec
Format profile : Baseline@L3.1
Format settings, CABAC : No
Format settings, ReFrames : 1 frame
Format settings, GOP : M=1, N=12
Codec ID : V_MPEG4/ISO/AVC
Duration : 1h 26mn
Bit rate mode : Variable
Bit rate : 2 139 Kbps
Maximum bit rate : 3 135 Kbps
Width : 1 280 pixels
Height : 720 pixels
Display aspect ratio : 16:9
Frame rate : 25.000 fps
Original frame rate : 24.000 fps
Color space : YUV
Chroma subsampling : 4:2:0
Bit depth : 8 bits
Scan type : Progressive
Bits/(Pixel*Frame) : 0.093
Stream size : 1.29 GiB (92%)
Default : Yes
Forced : No

Audio
ID : 2
Format : MPEG Audio
Format version : Version 1
Format profile : Layer 2
Codec ID : A_MPEG/L2
Codec ID/Hint : MP2
Duration : 1h 26mn
Bit rate mode : Constant
Bit rate : 128 Kbps
Channel(s) : 2 channels
Sampling rate : 44.1 KHz
Compression mode : Lossy
Stream size : 78.9 MiB (6%)
Default : Yes
Forced : No



This was originally 2.15gb so i recoded it,kept the mkv format but reduced the filesize with no noticeable quality loss,i got english subs with this,but for the life of me,i can't get them to work(even before recode).i've included them for anyone else who fancies trying.

Like this post to see ed2k links  [1.39 Gb]
Like this post to see ed2k links  [78.2 Kb]
User avatar
ptguardian
Posts: 4479
Likes:
Joined: Wed Sep 17, 2008 1:00 am

[REL] Pünktchen und Anton (1953)

Postby ptguardian » Mon Apr 09, 2012 9:46 am  12 likes

Pünktchen und Anton (1953)

http://www.imdb.com/title/tt0046218/

[Image]

You can find the remake here Pünktchen und Anton1999

[Image][Image][Image][Image][Image]

[Image][Image][Image][Image][Image]

[Image][Image]

Both kids have lots of screen time and it is great picture.

Like this post to see ed2k links  [2.15 Gb]

Like this post to see ed2k links  [73.8 Kb] English subtitles

Enjoy

I will keep this shared for a while but if you want it faster the file and subs can still be downloaded at http://blizzardkid.net/category/family- ... start_com= it is the 'original' file Starfish ripped his compressed version from.
Last edited by ptguardian on Thu Apr 12, 2012 10:26 am, edited 2 times in total.
User avatar
ptguardian
Posts: 4479
Likes:
Joined: Wed Sep 17, 2008 1:00 am

Re: [REL]Pünktchen und Anton(1953)

Postby ptguardian » Mon Apr 09, 2012 9:50 am  0 likes

Looks like you posted while I was posting mine. :lol:

An admin could merge both?
User avatar
starfish21
Posts: 3376
Likes:
Joined: Tue May 23, 2006 1:00 am

Re: [REL]Pünktchen und Anton(1953)

Postby starfish21 » Mon Apr 09, 2012 11:32 am  0 likes

:lol:
That's quite funny,are your subs working ok?
User avatar
Phuzzy4242
Site Admin
Posts: 6538
Likes:
Joined: Sun Aug 23, 2009 1:00 am

Re: [REL] Pünktchen und Anton (1953)

Postby Phuzzy4242 » Mon Apr 09, 2012 12:04 pm  0 likes

And the winner is... BOTH of you. lol. Thanks starfish and ptg.
User avatar
ptguardian
Posts: 4479
Likes:
Joined: Wed Sep 17, 2008 1:00 am

Re: [REL]Pünktchen und Anton(1953)

Postby ptguardian » Mon Apr 09, 2012 8:06 pm  0 likes

starfish21 wrote::lol:
That's quite funny,are your subs working ok?

Click picture for results
[Image]

Work fine in vlc :D
plonkah
Posts: 371
Likes:
Joined: Fri Jun 27, 2008 1:00 am

Re: [REL] Pünktchen und Anton (1953)

Postby plonkah » Fri Apr 13, 2012 3:56 pm  0 likes

Great Release - thanks you two :-0
User avatar
Jacen
Posts: 275
Likes:
Joined: Fri Apr 14, 2006 1:00 am

Re: [REL] Pünktchen und Anton (1953)

Postby Jacen » Sat Apr 14, 2012 3:19 am  0 likes

Interesting, I didn't know this was a remake. :)
User avatar
Phuzzy4242
Site Admin
Posts: 6538
Likes:
Joined: Sun Aug 23, 2009 1:00 am

Re: [REL] Pünktchen und Anton (1953)

Postby Phuzzy4242 » Sat Apr 14, 2012 5:38 pm  0 likes

What a wonderful slice of innocence! Loved this film. I laughed when they were in the barbershop when she used the shaving brush, keeping her parents from noticing her when they came home unexpectedly, and the housemaid dancing with the policemen. :) Thanks starfish, this is definitely a keeper.
User avatar
ptguardian
Posts: 4479
Likes:
Joined: Wed Sep 17, 2008 1:00 am

Re: [REL] Pünktchen und Anton (1953)

Postby ptguardian » Sun Apr 15, 2012 7:01 am  0 likes

This one is frustrating. I reintroduced this movie and told everyone about the HD large file I had found in hopes of getting help sharing it. I have shared over 6 gigs as of now and as far as I can tell everyone who has downloaded it scrammed and the two connected currently barely have any of it. Usually I make sure known FLM regulars have a file before I take it out of my main share but I have other releases waiting.

This is going on low priority. Sorry. :(

Return to “Germany”

Who is online

Users browsing this forum: Bing [Bot] and 2 guests