[REL] Trompeten Anton (1981)

User avatar
Phuzzy4242
Site Admin
Posts: 6710
Likes:
Joined: Sun Aug 23, 2009 1:00 am

[REL] Trompeten Anton (1981)

Postby Phuzzy4242 » Tue Oct 08, 2013 9:47 pm  14 likes

[Image]

http://www.rarefilmfinder.com/showfilm.php?id=21516
http://www.imdb.com/title/tt0324331/?ref_=fn_al_tt_1

Wikipedia wrote:Anton grew up in the circus on. His father was a magician here, her mother worked as a circus rider. One day, Anton cried again and suddenly heard the music of the circus clown playing trumpet Rico. He immediately stopped crying. As he grew, he began to play the trumpet. It quickly became clear to him that he wants to be musical clown later.

The parents give up life in the circus, as a mother Eisenberg gets the fourth child. You move to a big city to a new apartment in the 18th Stock. The father earned his money in building houses, even if it makes little fun work. Anton now exerts in the apartment, but soon gets into trouble with the neighbors, who complain about the noise. Mr. Winter Meier's truck drivers and sleeps during the day. Now he is constantly aroused by Anton music and is afraid that the pictures fall off the walls. Neighboring Karsch again claimed that with him the plaster is crumbling, once the music starts. The girl is looking for new exercise pill rooms with Anton. In the washroom Anton must go through the game because the detergent begins to foam excessively in the machine. The attempt to block the elevator in order to practice in the cabin alone can provide for new resentment of the residents. Finally, Anton is in the park near the train tracks a corner where no one bothers to his trumpet playing - in the skyscraper music has since been banned.


This is another DEFA film.

These caps are from the web (not mine)...
[Image]

Spoiler:

General
Complete name : E:\MovieShare\Releases\Trompeten Anton (1981).avi
Format : AVI
Format/Info : Audio Video Interleave
File size : 366 MiB
Duration : 57mn 10s
Overall bit rate mode : Variable
Overall bit rate : 895 Kbps
Writing application : MEncoder dev-SVN-rUNKNOWN-4.2.2
Writing library : MPlayer

Video
ID : 0
Format : MPEG-4 Visual
Format profile : Simple@L3
Format settings, BVOP : No
Format settings, QPel : No
Format settings, GMC : No warppoints
Format settings, Matrix : Default (H.263)
Codec ID : XVID
Codec ID/Hint : XviD
Duration : 57mn 10s
Bit rate : 800 Kbps
Width : 768 pixels
Height : 576 pixels
Display aspect ratio : 4:3
Frame rate : 25.000 fps
Color space : YUV
Chroma subsampling : 4:2:0
Bit depth : 8 bits
Scan type : Progressive
Compression mode : Lossy
Bits/(Pixel*Frame) : 0.072
Stream size : 327 MiB (89%)
Writing library : XviD 1.2.0.dev47 (UTC 2006-11-01)

Audio
ID : 1
Format : MPEG Audio
Format version : Version 1
Format profile : Layer 3
Mode : Joint stereo
Mode extension : MS Stereo
Codec ID : 55
Codec ID/Hint : MP3
Duration : 57mn 10s
Bit rate mode : Variable
Bit rate : 81.9 Kbps
Channel(s) : 2 channels
Sampling rate : 48.0 KHz
Compression mode : Lossy
Stream size : 33.5 MiB (9%)
Alignment : Aligned on interleaves
Interleave, duration : 24 ms (0.60 video frame)
Interleave, preload duration : 227 ms


Like this post to see ed2k links  [365.99 Mb]
User avatar
kev
Site Admin
Posts: 2987
Likes:
Joined: Tue Jan 17, 2006 1:00 am

Re: [REL] Trompeten Anton (1981)

Postby kev » Wed Oct 09, 2013 4:16 am  0 likes

Many thanks, Phuzzy.. I found a few similar vids by checking out titles that I found at the reincarnated 'Children In Cinema' site; but all mine already had been released here.

Love these oldies! :thumbsup

kev.
User avatar
Phuzzy4242
Site Admin
Posts: 6710
Likes:
Joined: Sun Aug 23, 2009 1:00 am

Re: [REL] Trompeten Anton (1981)

Postby Phuzzy4242 » Wed Oct 09, 2013 6:12 am  0 likes

I have a couple more to release in the next week or so. I've been on an old 1950's sci-fi kick lately so I haven't been looking for FLM stuff as much. Gotta love the cheesiness. :D

Return to “Germany”

Who is online

Users browsing this forum: No registered users and 1 guest