[REL] Ek Ajnabee AKA A Stranger (2005)

User avatar
Phuzzy4242
Site Admin
Posts: 6489
Likes:
Joined: Sun Aug 23, 2009 1:00 am

[REL] Ek Ajnabee AKA A Stranger (2005)

Postby Phuzzy4242 » Wed Nov 14, 2012 3:44 am  7 likes

Ek Ajnabee (2005)
AKA A Stranger

http://www.imdb.com/title/tt0457875/

IMDb wrote:Movie is a remake of the Hollywood movie Man on Fire (2004). Quite an effort to reproduce the movie with quite a different climax.

Suryaveer Singh (Amitabh Bachchan) is a bitter man, hired to protect a little girl, Anamika (Rucha Vaidya). However, Anamika gets kidnapped and her father is not able to pay the sum in order to release his daughter. So Suryaveer uses all his skills to save the life of the child, only to find out about the conspiracy that is behind the little girl's kidnapping.

FLM interest: Anamika ('Baby' Rucha Vaidya)

Note: These caps are not mine.
EkAjnabee1.jpg
EkAjnabee2.jpg
EkAjnabee3.jpg
EkAjnabee4.jpg
EkAjnabee5.jpg
EkAjnabee6.jpg

Like this post to see ed2k links  [700.25 Mb]
Like this post to see ed2k links  [700.44 Mb]
You do not have the required permissions to view the files attached to this post.
User avatar
emuler
Posts: 4104
Likes:
Joined: Sun Apr 02, 2006 1:00 am

Re: [REQ] Ek Ajnabee (2005)

Postby emuler » Wed Nov 14, 2012 4:36 am  0 likes

Ek means one, or in this case, a. Ajnabee means stranger. So the title directly translates to 'A stranger'. I don't go for Bollywood stuff - maybe I'm a bit of a snob that way, but I'll give it a look.
User avatar
Phuzzy4242
Site Admin
Posts: 6489
Likes:
Joined: Sun Aug 23, 2009 1:00 am

Re: [REQ] Ek Ajnabee (2005)

Postby Phuzzy4242 » Wed Nov 14, 2012 5:06 am  0 likes

Thanks, added that to the post title.
User avatar
Phuzzy4242
Site Admin
Posts: 6489
Likes:
Joined: Sun Aug 23, 2009 1:00 am

Re: [REL] Ek Ajnabee AKA A Stranger (2005)

Postby Phuzzy4242 » Fri Sep 21, 2018 12:54 am  0 likes

I've had this for a couple years and forgot to put it in release. Not a great film but not complete shite - the girl isn't Dakota but she's cute. Other than no subs (yet?) it's still watchable, in a Bollywood kind of way. ;) The links in the first post work just fine.

[Image] [Image]
[Image] [Image]
[Image] [Image]
[Image] [Image]
Spoiler:

General
Complete name : E:\MovieShare\Normal\Ek Ajnabee (2005) CD1 --BrG--.avi
Format : AVI
Format/Info : Audio Video Interleave
File size : 700 MiB
Duration : 1 h 6 min
Overall bit rate mode : Variable
Overall bit rate : 1 464 kb/s
Writing application : VirtualDubMod 1.5.4.1 (build 2178/release)
Writing library : VirtualDubMod build 2178/release

Video
ID : 0
Format : MPEG-4 Visual
Format profile : Advanced Simple@L5
Format settings, BVOP : 1
Format settings, QPel : No
Format settings, GMC : No warppoints
Format settings, Matrix : Custom
Codec ID : XVID
Codec ID/Hint : XviD
Duration : 1 h 6 min
Bit rate : 1 336 kb/s
Width : 640 pixels
Height : 288 pixels
Display aspect ratio : 2.222
Frame rate : 23.976 (24000/1001) FPS
Color space : YUV
Chroma subsampling : 4:2:0
Bit depth : 8 bits
Scan type : Progressive
Compression mode : Lossy
Bits/(Pixel*Frame) : 0.302
Stream size : 639 MiB (91%)
Writing library : XviD 1.1.0 (UTC 2005-11-22)

Audio
ID : 1
Format : MPEG Audio
Format version : Version 1
Format profile : Layer 3
Mode : Joint stereo
Mode extension : MS Stereo
Codec ID : 55
Codec ID/Hint : MP3
Duration : 1 h 6 min
Bit rate mode : Variable
Bit rate : 116 kb/s
Nominal bit rate : 128 kb/s
Channel(s) : 2 channels
Sampling rate : 48.0 kHz
Compression mode : Lossy
Stream size : 55.2 MiB (8%)
Alignment : Aligned on interleaves
Interleave, duration : 24 ms (0.58 video frame)
Interleave, preload duratio : 158 ms
Writing library : LAME3.97b
Encoding settings : -m j -V 4 -q 2 -lowpass 17 --abr 128
Language : Hindi / Hindi

User avatar
ghost
Site Admin
Posts: 3320
Likes:
Joined: Sun Mar 07, 2004 1:00 am

Re: [REL] Ek Ajnabee AKA A Stranger (2005)

Postby ghost » Fri Sep 21, 2018 8:28 am  1 likes

User avatar
Phuzzy4242
Site Admin
Posts: 6489
Likes:
Joined: Sun Aug 23, 2009 1:00 am

Re: [REL] Ek Ajnabee AKA A Stranger (2005)

Postby Phuzzy4242 » Fri Sep 21, 2018 11:51 pm  3 likes


Return to “India”

Who is online

Users browsing this forum: No registered users and 1 guest