[REL] Thoda Pyaar Thoda Magic-{INDIA}(2008)

User avatar
starfish21
Posts: 3376
Likes:
Joined: Tue May 23, 2006 1:00 am

[REL] Thoda Pyaar Thoda Magic-{INDIA}(2008)

Postby starfish21 » Tue May 17, 2011 9:03 pm  6 likes

Complete name Thoda.Pyaar.Thoda.Magic.2008.DVDRip.XviD-SaM.avi
Format : AVI
Format/Info : Audio Video Interleave
File size : 700 MiB
Duration : 2h 17mn
Overall bit rate : 714 Kbps
Writing application : VirtualDubMod 1.5.4.1 (build 2178/release)
Writing library : VirtualDubMod build 2178/release

Video
ID : 0
Format : MPEG-4 Visual
Format profile : Advanced Simple@L5
Format settings, BVOP : 1
Format settings, QPel : No
Format settings, GMC : No warppoints
Format settings, Matrix : Custom
Codec ID : XVID
Codec ID/Hint : XviD
Duration : 2h 17mn
Bit rate : 584 Kbps
Width : 528 pixels
Height : 224 pixels
Display aspect ratio : 2.35:1
Frame rate : 23.976 fps
Color space : YUV
Chroma subsampling : 4:2:0
Bit depth : 8 bits
Scan type : Progressive
Compression mode : Lossy
Bits/(Pixel*Frame) : 0.206
Stream size : 573 MiB (82%)
Writing library : XviD 1.2.0.dev47 (UTC 2006-11-01)

Audio
ID : 1
Format : MPEG Audio
Format version : Version 1
Format profile : Layer 3
Mode : Joint stereo
Mode extension : MS Stereo
Codec ID : 55
Codec ID/Hint : MP3
Duration : 2h 16mn
Bit rate mode : Variable
Bit rate : 117 Kbps
Nominal bit rate : 128 Kbps
Channel(s) : 2 channels
Sampling rate : 48.0 KHz
Compression mode : Lossy
Stream size : 115 MiB (16%)
Alignment : Aligned on interleaves
Interleave, duration : 24 ms (0.58 video frame)
Interleave, preload duration : 157 ms
Writing library : LAME3.97
Encoding settings : -m j -V 4 -q 2 -lowpass 17 --abr 128
Language : Hindi
subtitles : English srt file


official site http://www.yashrajfilms.com/microsites/ ... lpage.html

http://www.imdb.com/title/tt1191138/


[Image]

[Image][Image][Image]

[Image][Image][Image][Image]

[Image][Image][Image][Image]

[Image][Image][Image][Image]

[Image][Image][Image][Image]

[Image][Image][Image][Image]

[Image][Image][Image][Image]

Like this post to see ed2k links  [700.28 Mb]
Like this post to see ed2k links  [113.6 Kb]
User avatar
ARTHORIUS
Posts: 3709
Likes:
Joined: Sun Mar 26, 2006 1:00 am

Re: [REL] Thoda Pyaar Thoda Magic-{INDIA}(2008)

Postby ARTHORIUS » Tue May 17, 2011 9:05 pm  0 likes

धन्यवाद :thumbsup
User avatar
ghost
Site Admin
Posts: 3486
Likes:
Joined: Sun Mar 07, 2004 1:00 am

Re: [REL] Thoda Pyaar Thoda Magic-{INDIA}(2008)

Postby ghost » Tue May 17, 2011 9:32 pm  0 likes

Another surprise from starfish :eyecrazy :eyecrazy

Thanks a lot! :thumbsup

Return to “India”

Who is online

Users browsing this forum: No registered users and 1 guest