[REL] Un Ombra nell'ombra AKA Ring of Darkness (1979)

Red_Prussian
Posts: 4
Likes:
Joined: Sun Sep 18, 2005 1:00 am

[REL] Un Ombra nell'ombra AKA Ring of Darkness (1979)

Postby Red_Prussian » Sun Jan 01, 2006 11:56 am  0 likes

Great Movie with Lara Wendel!


http://www.imdb.com/title/tt0131510/

The daughter (14 year old Lara Wendel) of a women who is part of a satanic cult has great powers and kills everyone in her way. Of course they have a ceremony to rid her of those powers than requires that she be naked and bound to stakes in the ground. This is a pretty decent Italian Horror film, and fans of Lara will really enjoy it.


Thanks!
Guest

Re: [REL] Un Ombra nell'ombra AKA Ring of Darkness (1979)

Postby Guest » Sun Jan 01, 2006 12:30 pm  0 likes

Wow i know this movie...i'm italian...but i don't never seen yet.. :eyecrazy:
Anyone have it?

:D
ldieguez_
Posts: 74
Likes:
Joined: Sat Mar 25, 2006 1:00 am

Re: [REL] Un Ombra nell'ombra AKA Ring of Darkness (1979)

Postby ldieguez_ » Wed Jun 20, 2007 11:02 pm  27 likes

Un ombra nell'ombra (1979) // Aka Ring of Darkness

[Image]

http://www.rarefilmfinder.com/showfilm.php?id=1161
http://imdb.com/title/tt0131510/


There are two links the first one is the italian version and the second one is te english version (20 min shorter)...

Like this post to see ed2k links  [687.27 Mb]

or

Like this post to see ed2k links  [699.80 Mb]


please set to REL...
User avatar
ghost
Site Admin
Posts: 3674
Likes:
Joined: Sun Mar 07, 2004 1:00 am

Re: [REL] Un Ombra nell'ombra AKA Ring of Darkness (1979)

Postby ghost » Wed Jun 20, 2007 11:47 pm  0 likes

Done ;)

Thanks Ldieguez_
User avatar
ARTHORIUS
Posts: 3711
Likes:
Joined: Sun Mar 26, 2006 1:00 am

Re: [REL] Un Ombra nell'ombra AKA Ring of Darkness (1979)

Postby ARTHORIUS » Thu Jun 21, 2007 2:10 pm  0 likes

THANK YOU SO MUCH
User avatar
rmt@36
Posts: 475
Likes:
Joined: Thu Jan 26, 2006 1:00 am

Re: [REL] Un Ombra nell'ombra AKA Ring of Darkness (1979)

Postby rmt@36 » Thu Jun 21, 2007 8:45 pm  0 likes

Thanks for this

I really like Lara Wendel
billanben
Posts: 1396
Likes:
Joined: Tue Feb 07, 2006 1:00 am

Re: [REL] Un Ombra nell'ombra AKA Ring of Darkness (1979)

Postby billanben » Fri Jun 22, 2007 1:09 am  0 likes

Downloaded oneof theseand the quality is that bad that I almost junked it. Can someone comment if any of these is of reasonable quality please ?
Thanks
Debaser

Re: [REL] Un Ombra nell'ombra AKA Ring of Darkness (1979)

Postby Debaser » Fri Jun 22, 2007 8:39 am  0 likes

I can handle low quality if the films special scenes are special enough :)

You know me billanben, let me know what you thought of this when completed :)
User avatar
starfish21
Posts: 3376
Likes:
Joined: Tue May 23, 2006 1:00 am

Re: [REL] Un Ombra nell'ombra AKA Ring of Darkness (1979)

Postby starfish21 » Sat Mar 24, 2012 8:52 am  38 likes

[Image]

[Image]

[Image]

[Image]

[Image]

[Image]

[Image]

[Image]

[Image]

[Image]

[Image]


[Image] [Image] [Image]

[Image] [Image] [Image]

[Image] [Image] [Image]

[Image] [Image]


General
Complete name : Satans_Wife(1979_Un_Ombra_Nell_Ombra).avi
Format : AVI
Format/Info : Audio Video Interleave
File size : 1.09 GiB
Duration : 1h 27mn
Overall bit rate : 1 787 Kbps
Writing application : VirtualDubMod 1.5.4.1 (build 2178/release)
Writing library : VirtualDubMod build 2178/release

Video
ID : 0
Format : MPEG-4 Visual
Format profile : Advanced Simple@L5
Format settings, BVOP : No
Format settings, QPel : No
Format settings, GMC : No warppoints
Format settings, Matrix : Custom
Codec ID : XVID
Codec ID/Hint : XviD
Duration : 1h 27mn
Bit rate : 1 620 Kbps
Width : 688 pixels
Height : 400 pixels
Display aspect ratio : 16:9
Frame rate : 23.976 fps
Color space : YUV
Chroma subsampling : 4:2:0
Bit depth : 8 bits
Scan type : Progressive
Compression mode : Lossy
Bits/(Pixel*Frame) : 0.246
Stream size : 1 015 MiB (91%)
Writing library : XviD 58

Audio
ID : 1
Format : MPEG Audio
Format version : Version 1
Format profile : Layer 3
Mode : Joint stereo
Mode extension : MS Stereo
Codec ID : 55
Codec ID/Hint : MP3
Duration : 1h 27mn
Bit rate mode : Constant
Bit rate : 160 Kbps
Channel(s) : 2 channels
Sampling rate : 48.0 KHz
Compression mode : Lossy
Stream size : 100 MiB (9%)
Alignment : Aligned on interleaves
Interleave, duration : 83 ms (2.00 video frames)
Interleave, preload duration : 504 ms
Writing library : LAME3.98r
Encoding settings : -m j -V 4 -q 2 -lowpass 17.5 -b 160
Language : English


Like this post to see ed2k links  [1.09 Gb]

Return to “Italy”

Who is online

Users browsing this forum: kev and 1 guest