[REL] Io Non Ho Paura (I'm Not Scared)

User avatar
ghost
Site Admin
Posts: 3627
Likes:
Joined: Sun Mar 07, 2004 1:00 am

[REL] Io Non Ho Paura (I'm Not Scared)

Postby ghost » Thu Apr 08, 2004 10:41 pm  8 likes

damn, can't find the thread of this movie anymore.

Here are some subs:

Like this post to see ed2k links  [1.73 Mb]
ital
Posts: 39
Likes:
Joined: Wed Apr 07, 2004 1:00 am

Re: Subs for Io Non Ho Paura

Postby ital » Thu Apr 08, 2004 11:45 pm  0 likes

User avatar
starfish21
Posts: 3376
Likes:
Joined: Tue May 23, 2006 1:00 am

Re: Subs for Io Non Ho Paura

Postby starfish21 » Mon Jan 02, 2012 8:43 pm  24 likes

since this one seems to have vanished......


I'm Not Scared (2003)Io non ho paura(original title)

http://www.imdb.com/title/tt0326977/

While playing outside one day, nine-year-old Michele discovers Filippo, who is chained to the ground at the bottom of a hole. Michele witnesses town baddie Felice nearby and suspects something bad is happening. Michele is unsure whom he should tell about his discovery, eventually spilling the beans to his closest friend.



General
Complete name :io_non_ho_paura.avi
Format : AVI
Format/Info : Audio Video Interleave
File size : 846 MiB
Duration : 1h 44mn
Overall bit rate : 1 130 Kbps
Writing application : MEncoder dev-SVN-r29116-4.3-openSUSE Linux 11.0 (x86_64)-Packman
Writing library : MPlayer

Video
ID : 0
Format : MPEG-4 Visual
Format profile : Advanced Simple@L5
Format settings, BVOP : 2
Format settings, QPel : No
Format settings, GMC : No warppoints
Format settings, Matrix : Default (MPEG)
Codec ID : XVID
Codec ID/Hint : XviD
Duration : 1h 44mn
Bit rate : 995 Kbps
Width : 704 pixels
Height : 304 pixels
Display aspect ratio : 2.40:1
Frame rate : 25.000 fps
Color space : YUV
Chroma subsampling : 4:2:0
Bit depth : 8 bits
Scan type : Progressive
Compression mode : Lossy
Bits/(Pixel*Frame) : 0.186
Stream size : 745 MiB (88%)
Writing library : XviD 1.1.2 (UTC 2006-11-01)

Audio
ID : 1
Format : MPEG Audio
Format version : Version 1
Format profile : Layer 3
Mode : Joint stereo
Mode extension : MS Stereo
Codec ID : 55
Codec ID/Hint : MP3
Duration : 1h 44mn
Bit rate mode : Variable
Bit rate : 122 Kbps
Channel(s) : 2 channels
Sampling rate : 48.0 KHz
Compression mode : Lossy
Stream size : 91.4 MiB (11%)
Alignment : Aligned on interleaves
Interleave, duration : 24 ms (0.60 video frame)
Interleave, preload duration : 503 ms
Writing library : LAME3.98.2



[Image] [Image] [Image] [Image]

[Image] [Image] [Image] [Image]

[Image] [Image] [Image] [Image]

[Image] [Image] [Image] [Image]

[Image] [Image] [Image] [Image]

[Image] [Image] [Image] [Image]


Like this post to see ed2k links  [845.56 Mb]

Like this post to see ed2k links  [51.1 Kb]
User avatar
ptguardian
Posts: 4479
Likes:
Joined: Wed Sep 17, 2008 1:00 am

Re: Subs for Io Non Ho Paura

Postby ptguardian » Mon Jan 02, 2012 9:41 pm  0 likes

...
Thanks Starfish looks good. :thumbsup

Return to “Italy”

Who is online

Users browsing this forum: No registered users and 2 guests