[REL] A Perfect Day - AKA - Un giorno perfetto (2008)

User avatar
starfish21
Posts: 3376
Likes:
Joined: Tue May 23, 2006 1:00 am

[REL] A Perfect Day - AKA - Un giorno perfetto (2008)

Post by starfish21 »   13 likes

Title: A Perfect Day
Year: 2008
Original title: Un giorno perfetto
Runtime: 1 hour, 37 minutes
Country: Italy
Language: Italian
Subtitles: English (.sub/.idx)
Genre: Drama

Director: Ferzan Ozpetek

Cast
Isabella Ferrari ... Emma
Valerio Mastandrea ... Antonio
Valerio Binasco ... Elio Fioravanti
Nicole Grimaudo ... Maja
Federico Costantini ... Aris
Monica Guerritore ... Mara
Angela Finocchiaro ... Silvana
Stefania Sandrelli ... Adriana
Nicole Murgia ... Valentina
Gabriele Paolino ... Kevin
Giulia Salerno ... Camilla

Plot / Synopsis

A dysfunctional family is torn apart in a moment of violence and anger in this thriller from director Ferzan Ozpetek.

Antonio is a burly and short-tempered man who works as a bodyguard for Elio Fioravanti, a high-ranking politician. Antonio is officially married to Emma, but she's left him and has gone to live with her mother Adriana, taking their kids Valentina and Kevin with her. Antonio is determined to win Emma back, and when Kevin is invited to a birthday party thrown for Elio's daughter by the politician's young trophy wife Maja, he hopes it will give him a chance to reconnect with his family. However, at the party Emma makes it clear that she has no interest in getting back together with Antonio and wants him to stop following her. Antonio flies into a rage, attacks Emma, then storms off with Valentina and Kevin in tow. Once Emma collects herself, she realizes she must act quickly if she wants her children back, and with the help of Mara they comb the city in search of Antonio.

Un Giorno Perfetto (aka A Perfect Day) was an official selection at the 2008 Venice Film Festival. ~ Mark Deming, Allmovie.

General
Complete name : A.Perfect.Day.avi
Format : AVI
Format/Info : Audio Video Interleave
File size : 699 MiB
Duration : 1h 37mn
Overall bit rate : 999 Kbps

Video
ID : 0
Format : MPEG-4 Visual
Format profile : Advanced Simple@L5
Format settings, BVOP : 1
Format settings, QPel : No
Format settings, GMC : No warppoints
Format settings, Matrix : Default (H.263)
Codec ID : XVID
Codec ID/Hint : XviD
Duration : 1h 37mn
Bit rate : 867 Kbps
Width : 640 pixels
Height : 272 pixels
Display aspect ratio : 2.35:1
Frame rate : 25.000 fps
Color space : YUV
Chroma subsampling : 4:2:0
Bit depth : 8 bits
Scan type : Progressive
Compression mode : Lossy
Bits/(Pixel*Frame) : 0.199
Stream size : 607 MiB (87%)
Writing library : XviD 1.2.1 (UTC 2008-12-04)

Audio
ID : 1
Format : MPEG Audio
Format version : Version 1
Format profile : Layer 3
Mode : Joint stereo
Mode extension : MS Stereo
Codec ID : 55
Codec ID/Hint : MP3
Duration : 1h 37mn
Bit rate mode : Variable
Bit rate : 119 Kbps
Minimum bit rate : 32.0 Kbps
Channel(s) : 2 channels
Sampling rate : 48.0 KHz
Compression mode : Lossy
Stream size : 83.1 MiB (12%)
Alignment : Aligned on interleaves
Interleave, duration : 24 ms (0.60 video frame)
Interleave, preload duration : 394 ms
Writing library : LAME3.97
Encoding settings : -m j -V 4 -q 3 -lowpass 17.5 --vbr-new -b 32


http://www.imdb.com/title/tt1056067/

[Image]
[Image][Image][Image]

[Image][Image][Image]

[Image][Image][Image]

[Image][Image][Image]

[Image][Image][Image]

[Image][Image]

Like this post to see ed2k links  [2.82 Mb]
Like this post to see ed2k links  [38.1 Kb]
Like this post to see ed2k links  [699.29 Mb]
User avatar
ARTHORIUS
Posts: 3717
Likes:
Joined: Sun Mar 26, 2006 1:00 am

Re: [REL]A Perfect Day-AKA-Un giorno perfetto(2008)-italy

Post by ARTHORIUS »   0 likes

Thanks starfish i remember that this movie wasn't FLM material but i am wrong :thumbsup




P.S. next time i must see more much better a movie :wall
User avatar
starfish21
Posts: 3376
Likes:
Joined: Tue May 23, 2006 1:00 am

Re: [REL]A Perfect Day-AKA-Un giorno perfetto(2008)-italy

Post by starfish21 »   0 likes

ARTHORIUS wrote:Thanks starfish i remember that this movie wasn't FLM material but i am wrong :thumbsup




P.S. next time i must see more much better a movie :wall


tut! tut! tut! shame on you ART!...........missing this one,and you being our resident Italian expert as well.


[Image]
User avatar
popdrome
Global Moderator
Posts: 2241
Likes:
Joined: Sat Mar 25, 2006 1:00 am

Re: [REL]A Perfect Day-AKA-Un giorno perfetto(2008)-italy

Post by popdrome »   0 likes

tut tut I mean tut tut tut Art! :icon_hul

;) thanks starfish! nice find
Post Reply