[REL] Lepel (2005)

User avatar
Phuzzy4242
Site Admin
Posts: 6540
Likes:
Joined: Sun Aug 23, 2009 1:00 am

[REL] Lepel (2005)

Postby Phuzzy4242 » Mon Oct 07, 2013 4:44 am  13 likes

[Image]

http://www.rarefilmfinder.com/showfilm.php?id=8087
http://www.imdb.com/title/tt0400598/?ref_=fn_al_tt_1

IMDb wrote:Years ago, Lepel's parents left an hot air balloon world tour. He stays with granny Koppenol, a mean bitch who constantly exploits him for domestic chores, in her buttons shop and even as accomplice in the department store where she steals the buttons from clothes. After she won't even leave him the balloon kind salesman Max gave him, Lepel, now 9, runs away. He meets Max's slightly older daughter Pleun. Schoolmaster Bijts is also looking for him, but only as arithmetics talent for an academic schools contest. Max accidentally finds out the sad truth about Lepel's family.


[Image] [Image] [Image] [Image]
[Image] [Image] [Image] [Image]
[Image] [Image] [Image] [Image]
[Image] [Image] [Image] [Image]
[Image] [Image] [Image] [Image]
Spoiler:

General
Complete name : E:\MovieShare\Releases\Lepel (2005) Nederlands.avi
Format : AVI
Format/Info : Audio Video Interleave
File size : 900 MiB
Duration : 1h 32mn
Overall bit rate : 1 364 Kbps
Writing application : VirtualDubMod 1.5.4.1 (build 2178/release)
Writing library : VirtualDubMod build 2178/release

Video
ID : 0
Format : MPEG-4 Visual
Format profile : Advanced Simple@L5
Format settings, BVOP : 1
Format settings, QPel : No
Format settings, GMC : No warppoints
Format settings, Matrix : Custom
Codec ID : XVID
Codec ID/Hint : XviD
Duration : 1h 32mn
Bit rate : 1 165 Kbps
Width : 640 pixels
Height : 272 pixels
Display aspect ratio : 2.35:1
Frame rate : 25.000 fps
Color space : YUV
Chroma subsampling : 4:2:0
Bit depth : 8 bits
Scan type : Progressive
Compression mode : Lossy
Bits/(Pixel*Frame) : 0.268
Stream size : 769 MiB (85%)
Writing library : XviD 1.0.2 (UTC 2004-08-29)

Audio
ID : 1
Format : AC-3
Format/Info : Audio Coding 3
Mode extension : CM (complete main)
Format settings, Endianness : Big
Codec ID : 2000
Duration : 1h 32mn
Bit rate mode : Constant
Bit rate : 192 Kbps
Channel(s) : 2 channels
Channel positions : Front: L R
Sampling rate : 48.0 KHz
Bit depth : 16 bits
Compression mode : Lossy
Delay relative to video : 80ms
Stream size : 127 MiB (14%)
Alignment : Split accross interleaves
Interleave, duration : 96 ms (2.40 video frames)
Interleave, preload duration : 96 ms
Language : Nederlands


Like this post to see ed2k links  [900.35 Mb]

Return to “Netherlands”

Who is online

Users browsing this forum: No registered users and 1 guest