[REL] Hjemsøkt (Haunted) (2017)

User avatar
Tiny Blondie
Posts: 180
Likes:
Joined: Mon Jan 29, 2018 3:45 pm

[REL] Hjemsøkt (Haunted) (2017)

Postby Tiny Blondie » Tue Feb 12, 2019 3:21 pm  1 likes

After her father's death Catherine travels back to her old family estate in winter time Norway. When locals start telling stories of disappearances and possible murders, she is forced to confront her family's mysterious past.

https://www.imdb.com/title/tt6322902/

aka L.Enfant.Du.Passe.2018.FRENCH.720p.WEB.x264-GAZOAL.mkv (1000 Mb)

https://uptobox.com/xmb932p4fry3


[Image]
User avatar
Warg
Posts: 323
Likes:
Joined: Tue Jul 12, 2016 11:24 am

Re: [REQ] Hjemsøkt (Haunted) (2017)

Postby Warg » Tue Feb 12, 2019 6:38 pm  2 likes

Watch online (russian dubbed): https://nash-kinozal.ru/32041-prizraki-hjemsokt-2017.html

There is also an eMule link - but it seems to be dead :( ...
Like this post to see ed2k links  [1.91 Gb]

Edit: A full source showed up - but it's probably very slow ...
User avatar
Phuzzy4242
Site Admin
Posts: 6626
Likes:
Joined: Sun Aug 23, 2009 1:00 am

Re: [REL] Hjemsøkt (Haunted) (2017)

Postby Phuzzy4242 » Wed Feb 13, 2019 12:52 am  0 likes

I'm seeing it too. Keep your paws crossed.
User avatar
ghost
Site Admin
Posts: 3490
Likes:
Joined: Sun Mar 07, 2004 1:00 am

Re: [REL] Hjemsøkt (Haunted) (2017)

Postby ghost » Wed Feb 13, 2019 10:27 pm  6 likes

[Image]

Spoiler:

General

Complete name : Hjemsøkt - Haunted (2017).1080p.5.1.mkv
Format : Matroska
Format version : Version 4
File size : 2.36 GiB
Duration : 1 h 18 min
Overall bit rate mode : Variable
Overall bit rate : 4 313 kb/s
Encoded date : UTC 2019-02-13 21:17:36
Writing application : mkvmerge v31.0.0 ('Dolores In A Shoestand') 64-bit
Writing library : libebml v1.3.6 + libmatroska v1.4.9

Video
ID : 1
Format : AVC
Format/Info : Advanced Video Codec
Format profile : Main@L4.1
Format settings : CABAC / 2 Ref Frames
Format settings, CABAC : Yes
Format settings, ReFrames : 2 frames
Format settings, GOP : M=3, N=25
Codec ID : V_MPEG4/ISO/AVC
Duration : 1 h 18 min
Bit rate mode : Variable
Bit rate : 3 927 kb/s
Maximum bit rate : 14.0 Mb/s
Width : 1 920 pixels
Height : 1 080 pixels
Display aspect ratio : 16:9
Frame rate mode : Constant
Frame rate : 25.000 FPS
Color space : YUV
Chroma subsampling : 4:2:0
Bit depth : 8 bits
Scan type : Progressive
Bits/(Pixel*Frame) : 0.076
Stream size : 2.15 GiB (91%)
Default : Yes
Forced : No

Audio
ID : 2
Format : AC-3
Format/Info : Audio Coding 3
Commercial name : Dolby Digital
Codec ID : A_AC3
Duration : 1 h 18 min
Bit rate mode : Constant
Bit rate : 384 kb/s
Channel(s) : 6 channels
Channel layout : L R C LFE Ls Rs
Sampling rate : 48.0 kHz
Frame rate : 31.250 FPS (1536 SPF)
Bit depth : 16 bits
Compression mode : Lossy
Stream size : 216 MiB (9%)
Language : Norwegian
Service kind : Complete Main
Default : Yes
Forced : No



Like this post to see ed2k links  [2.36 Gb]

English subs:
Like this post to see ed2k links  [24.6 Kb]

Return to “Norway”

Who is online

Users browsing this forum: No registered users and 1 guest