[REL] Buleczka (1973)

Rich
Posts: 2821
Likes:
Joined: Sat Feb 21, 2004 1:00 am

[REL] Buleczka (1973)

Post by Rich »   0 likes

User avatar
idler
Posts: 1107
Likes:
Joined: Sat Apr 01, 2006 1:00 am

Re: [REL] Buleczka (1973)

Post by idler »   15 likes

Rich
Posts: 2821
Likes:
Joined: Sat Feb 21, 2004 1:00 am

Re: [REL] Buleczka (1973)

Post by Rich »   3 likes

Thanks idler, my emule search function is screwed today for some reason :wall
User avatar
idler
Posts: 1107
Likes:
Joined: Sat Apr 01, 2006 1:00 am

Re: [REL] Buleczka (1973)

Post by idler »   0 likes

May I remark that this is a Polish movie!
Rich
Posts: 2821
Likes:
Joined: Sat Feb 21, 2004 1:00 am

Re: [REL] Buleczka (1973)

Post by Rich »   0 likes

idler wrote:May I remark that this is a Polish movie!
hmm good point! :) wonder why RFF listed the Finnish title as an AKA :think i.e. not my fault, lol ;)
FLL
Posts: 2191
Likes:
Joined: Mon Aug 28, 2006 1:00 am

Re: [REL] Buleczka (1973)

Post by FLL »   0 likes

Rich wrote:
idler wrote:May I remark that this is a Polish movie!
hmm good point! :) wonder why RFF listed the Finnish title as an AKA :think i.e. not my fault, lol ;)
New to RFF? Or to the acronym "AKA"? RFF lists Dakota Fanning's "Man on Fire" as "Aka: Гнев (Russia)". Would you post it as as Russian movie? IMDB regularly posts aliases also.



This movie has been released before at FLM. By ghost.

https://www.first-loves.net/forums/v ... php?t=2102

Because the L has a funny accent it's not easily searchable, but a search at FLM did turn up an ARTHORIUS thread referring to it as a release. Using the link idler posted (which is searchable on FLM). The lesson is that if you post a movie with accents it helps the search if you also post the unaccented title in your post as an AKA. (Then search picks it up. Google does this automatically, FLM does not.)

Because of the search difficulty I'll make this thread a REL and move the old one to the Graveyard. One comment from that thread deserves to be copied though:
infiniter wrote:If I may write a review: I like cute kids, but this girl doesn't even look like one. The movie is boring, but may contain some funny lyrics which most of us won't understand because of the polish. The scenes which might be of interest are not considered by me to be on-topic.
But, this is only my opinion. There are lots of other movies around which are far better. :sleepy:
User avatar
ptguardian
Posts: 4479
Likes:
Joined: Wed Sep 17, 2008 1:00 am

Re: [REL] Buleczka (1973)

Post by ptguardian »   0 likes

LOL...i think that perhaps without long hair infiniter can't tell a girl from a boy. this movie is OT from several perspectives

decent enough copy to watch, if someone could find an upgrade that would be very nice ;)


[Image]
User avatar
Phuzzy4242
Site Admin
Posts: 7686
Likes:
Joined: Sun Aug 23, 2009 1:00 am

Re: [REL] Buleczka (1973)

Post by Phuzzy4242 »   0 likes

Buleczka aka Muffin
Bunnie (as in the buns you eat, not baby rabbits) is sent by train from her foster home in a small village to live with her aunt and uncle in a big city. She is delighted to find that she also has a cousin. Unfortunately, Darina is a lonely and sickly child, cared for mostly by the housekeeper, and she resists Bunnie's efforts to be friendly. Soon, the bright and talkative girl manages to win over her cousin and uncle.
I don't know why infiniter didn't like this film - I enjoyed it. The little girl was a real sweetie and I laughed when she sprayed everything including her aunt when she was taking a bath and when the fireman breaks the window and hoses the lady (as you can tell, this is slapstick comedy suitable for kids). Katarzyna Dąbrowska (Bronia) had almost 100% screen time and there were several OT scenes of her and her cousin.

Thanks to all who brought this here.
User avatar
Pardal2008
Posts: 341
Likes:
Joined: Wed Feb 22, 2012 10:23 pm

Re: [REL] Buleczka (1973)

Post by Pardal2008 »   0 likes

All the little girls are in love only to me
User avatar
Phuzzy4242
Site Admin
Posts: 7686
Likes:
Joined: Sun Aug 23, 2009 1:00 am

Re: [REL] Buleczka (1973)

Post by Phuzzy4242 »   16 likes

.
OLD
Spoiler:

General
Complete name : K:\Online\FLM\Buleczka AKA Muffin (1973).avi
Format : AVI
Format/Info : Audio Video Interleave
File size : 700 MiB
Duration : 1 h 20 min
Overall bit rate mode : Variable
Overall bit rate : 1 214 kb/s
Writing application : VirtualDubMod 1.5.1.1a (build 1215/release)
Writing library : VirtualDubMod build 1215/release

Video
ID : 0
Format : MPEG-4 Visual
Format settings, BVOP : No
Format settings, QPel : No
Format settings, GMC : No warppoints
Format settings, Matrix : Default (H.263)
Codec ID : DX50
Codec ID/Hint : DivX 5
Duration : 1 h 20 min
Bit rate : 1 053 kb/s
Nominal bit rate : 6 951 kb/s
Width : 720 pixels
Height : 564 pixels
Display aspect ratio : 1.277
Frame rate : 25.000 FPS
Color space : YUV
Chroma subsampling : 4:2:0
Bit depth : 8 bits
Scan type : Progressive
Compression mode : Lossy
Bits/(Pixel*Frame) : 0.104
Stream size : 607 MiB (87%)
Writing library : DivX 5.1.1 (Maupiti) (UTC 2003-11-19)

Audio
ID : 1
Format : MPEG Audio
Format version : Version 1
Format profile : Layer 3
Format settings : Joint stereo / MS Stereo
Codec ID : 55
Codec ID/Hint : MP3
Duration : 1 h 20 min
Bit rate mode : Variable
Bit rate : 148 kb/s
Nominal bit rate : 160 kb/s
Channel(s) : 2 channels
Sampling rate : 48.0 kHz
Frame rate : 41.667 FPS (1152 SPF)
Compression mode : Lossy
Stream size : 85.6 MiB (12%)
Alignment : Aligned on interleaves
Interleave, duration : 24 ms (0.60 video frame)
Interleave, preload duration : 491 ms
Writing library : LAME3.93
Encoding settings : -m j -V 0 -q 2 -lowpass 18.5 --abr 160
NEW:
Spoiler:

General
Complete name : K:\Online\Releases\Bułeczka (1973) WEB-DL.Y!.mp4
Format : MPEG-4
Format profile : Base Media / Version 2
Codec ID : mp42 (isom/iso2/avc1/mp41)
File size : 1.68 GiB
Duration : 1 h 20 min
Overall bit rate mode : Variable
Overall bit rate : 2 980 kb/s
Encoded date : UTC 2019-04-12 13:52:18
Tagged date : UTC 2019-04-12 13:52:18
Writing application : HandBrake 1.1.1 2018061800

Video
ID : 1
Format : AVC
Format/Info : Advanced Video Codec
Format profile : Main@L4
Format settings : CABAC / 4 Ref Frames
Format settings, CABAC : Yes
Format settings, Reference frames : 4 frames
Codec ID : avc1
Codec ID/Info : Advanced Video Coding
Duration : 1 h 20 min
Bit rate : 2 813 kb/s
Width : 720 pixels
Height : 576 pixels
Display aspect ratio : 5:4
Frame rate mode : Constant
Frame rate : 25.000 FPS
Standard : PAL
Color space : YUV
Chroma subsampling : 4:2:0
Bit depth : 8 bits
Scan type : Progressive
Bits/(Pixel*Frame) : 0.271
Stream size : 1.59 GiB (94%)
Writing library : x264 core 155 r2901 7d0ff22
Encoding settings : cabac=1 / ref=2 / deblock=1:0:0 / analyse=0x1:0x111 / me=hex / subme=6 / psy=1 / psy_rd=1.00:0.00 / mixed_ref=1 / me_range=16 / chroma_me=1 / trellis=1 / 8x8dct=0 / cqm=0 / deadzone=21,11 / fast_pskip=1 / chroma_qp_offset=-2 / threads=12 / lookahead_threads=2 / sliced_threads=0 / nr=0 / decimate=1 / interlaced=0 / bluray_compat=0 / constrained_intra=0 / bframes=3 / b_pyramid=2 / b_adapt=1 / b_bias=0 / direct=1 / weightb=1 / open_gop=0 / weightp=1 / keyint=250 / keyint_min=25 / scenecut=40 / intra_refresh=0 / rc_lookahead=30 / rc=crf / mbtree=1 / crf=22.0 / qcomp=0.60 / qpmin=0 / qpmax=69 / qpstep=4 / vbv_maxrate=20000 / vbv_bufsize=25000 / crf_max=0.0 / nal_hrd=none / filler=0 / ip_ratio=1.40 / aq=1:1.00
Encoded date : UTC 2019-04-12 13:52:18
Tagged date : UTC 2019-04-12 13:52:18
Color range : Limited
Color primaries : BT.601 PAL
Transfer characteristics : BT.709
Matrix coefficients : BT.601
Codec configuration box : avcC

Audio
ID : 2
Format : AAC LC
Format/Info : Advanced Audio Codec Low Complexity
Codec ID : mp4a-40-2
Duration : 1 h 20 min
Bit rate mode : Variable
Bit rate : 161 kb/s
Channel(s) : 2 channels
Channel layout : L R
Sampling rate : 48.0 kHz
Frame rate : 46.875 FPS (1024 SPF)
Compression mode : Lossy
Stream size : 92.7 MiB (5%)
Title : Stereo / Stereo
Language : English
Default : Yes
Alternate group : 1
Encoded date : UTC 2019-04-12 13:52:18
Tagged date : UTC 2019-04-12 13:52:18
Picture size is nearly identical to the original release - 720x564 (original) compared to 720x576 (new) - but the color quality increase is apparent.

[Image] [Image]

Like this post to see ed2k links  [1.68 Gb]
Post Reply