[REL] Idi i Smotri AKA Come and See (1985)

billanben
Posts: 1396
Likes:
Joined: Tue Feb 07, 2006 1:00 am

[REL] Idi i Smotri AKA Come and See (1985)

Post by billanben »   12 likes

http://us.imdb.com/title/tt0091251/

Elem Klimov directs the film, starring Aleksei Kravchenko as Florya, a young boy who desires to fight with the Partisan's army against the invading Nazi army. He digs until he finds a rifle, then the next day he is off to a camp in the middle of the woods. The scene is chaotic it seems and unorganized. The fighters try to take a photo that takes about 5 minutes to accomplish because everyone keeps messing up their positions. Florya spots Glasha (Olga Mironova), a young girl, who has the younger fighters swooning over her, and who also seems to have some sort of relationship with the leader of the camp. What that relationship is exactly we never find out. Florya gets left behind on the attack because he is perhaps too young, and besides another older fighter needs some new boots, and swaps with the new kid. .

The anxious Florya is upset by this decision and he takes to the woods for some solitude, he cries and then discovers that near by Glasha is also crying at being left at the camp, more so for being left alone than behind. The two begin to bond and end up in an open field when German planes attack and begin to bomb the encampment. The scenes that follow next teeter on the brink of madness on film. Come and See is likely one of the most maddening films ever made for that matter. The key is the soundtrack. Florya is struck deaf for a few moments by the bombs. Sounds are muffled, but not like anything you've ever seen in a Hollywood film. The soundtrack is a mix of strange ringing and sounds and music, adding to the atmosphere of chaos that the two youngsters have now been thrown into. Much of the film has this style of soundtrack, which makes the Florya's descent into madness much more poignant.

The film movies forward from here back to Florya's village which has now been deserted. The two head to an island on the other side of a bog where Florya believes the town is hiding along with his mother and sisters. The scene where they climb through the mud is another example of Florya losing his mind. The soundtrack again becomes ambient and menacing in its strange blends of sounds. They eventually find some villagers and Florya now even more loses his sanity, along with some of his hair, which is given to recreate a statue of Hitler. This will be the last time we see Glasha in the movie, as Florya goes with a party to collect food for the starving people.

The most famous scene, and the one that will likely never leave you, is of a village being ransacked by Nazi soldiers. The scene is chaotic and culminates in a barn stuffed with the townspeople being burned and shot apart. Another one of the most famous shots from the movie is of Florya shooting a photo of Hitler, each bullet making time reverse. The photo goes back in time until it is a picture of Hitler as a baby on his mothers lap. He is an innocent infant, and Florya cannot bring himself to fire another shot. These shots are incredibly powerful and they stick in your mind.

Obviously, Come and See was filmed with influences of Soviet Propaganda in it, but it hardly matters because it is so well made and so maddening you can't help but be totally absorbed by the experience. The movie has a hypnotic quality about it, and without being horrifying because it's a jump out of your seat surprise bloodbath, it is horrifying in its representation of the cruelty people are capable of in war.

I can't remember ever seeing another film that expressed the descent into madness any better and being so involving as Come and See. By the end of the film, you feel like you've just experienced what it must be like to lose your mind. The film never goes into the desensitizing of violence in war. Instead it focuses on the violence which causes those who witness to become desensitized from the madness of its cruelty.

Elem Klimov created this film out of his actors and their emotions, and essentially used the viewer as another character. This movie draws you in and makes you experience exactly what the characters must. There are few other films that do that to you, especially to the extent that this one does it. And for that, Come and See is not only a masterpiece, it's really one of the best films you'll ever see. Find it, but don't just watch it. Allow it to take you in; even if that means you have to see it a couple times. Let it take you in, and you're in for an experience rarely found in cinema anymore

Thanks to FLL for locating the title for me and now the links, available with lots of sources

Like this post to see ed2k links  [699.28 Mb]
Like this post to see ed2k links  [698.52 Mb]

Or Russian-English (but not many sources)

Like this post to see ed2k links  [712.85 Mb]
Like this post to see ed2k links  [697.30 Mb]

Subtitles

Like this post to see ed2k links  [24.5 Kb]
Like this post to see ed2k links  [20.2 Kb]

(Note there are loads of subtitles on EM)

enjoy
FLL
Posts: 2191
Likes:
Joined: Mon Aug 28, 2006 1:00 am

Re: [REL] Idi i Smotri 1985 (aka Come and See)

Post by FLL »   10 likes

Here's a quicker link for Russian-English (dual audio) with lots of sources, both CDs completed for me in less than 24
hours.
Like this post to see ed2k links  [697.94 Mb]
Like this post to see ed2k links  [697.30 Mb]
User avatar
Phuzzy4242
Site Admin
Posts: 7686
Likes:
Joined: Sun Aug 23, 2009 1:00 am

Re: [REL] Idi i Smotri AKA Come and See (1985)

Post by Phuzzy4242 »   14 likes

Better quality - 954x720 - with subs in 13 languages. This is a powerful film that's stuck in my mind since I first saw it.
Spoiler:

General
Unique ID : 156047235748713003329440456587031058715 (0x75659ABA664323E8405F258C6D5B991B)
Complete name : K:\FLM\Releases\Idi i Smotri AKA Come And See (1985) RUS (rus eng fra sub 13 lang).mkv
Format : Matroska
Format version : Version 4
File size : 3.76 GiB
Duration : 2 h 16 min
Overall bit rate : 3 937 kb/s
Encoded date : UTC 2019-01-23 11:06:27
Writing application : mkvmerge v8.8.0 ('Wind at my back') 64bit
Writing library : libebml v1.3.3 + libmatroska v1.4.4 / Lavf58.26.100

Video
ID : 1
Format : AVC
Format/Info : Advanced Video Codec
Format profile : High@L3.1
Format settings : CABAC / 5 Ref Frames
Format settings, CABAC : Yes
Format settings, Reference frames : 5 frames
Codec ID : V_MPEG4/ISO/AVC
Duration : 2 h 16 min
Bit rate : 2 500 kb/s
Width : 954 pixels
Height : 720 pixels
Display aspect ratio : 4:3
Original display aspect ratio : 4:3
Frame rate mode : Constant
Frame rate : 25.000 FPS
Color space : YUV
Chroma subsampling : 4:2:0
Bit depth : 8 bits
Scan type : Progressive
Bits/(Pixel*Frame) : 0.146
Stream size : 2.39 GiB (63%)
Writing library : x264 core 148 r2643 5c65704
Encoding settings : cabac=1 / ref=5 / deblock=1:0:0 / analyse=0x3:0x113 / me=umh / subme=8 / psy=1 / psy_rd=1.00:0.00 / mixed_ref=1 / me_range=16 / chroma_me=1 / trellis=1 / 8x8dct=1 / cqm=0 / deadzone=21,11 / fast_pskip=1 / chroma_qp_offset=-2 / threads=16 / lookahead_threads=2 / sliced_threads=0 / nr=0 / decimate=1 / interlaced=0 / bluray_compat=0 / constrained_intra=0 / bframes=3 / b_pyramid=2 / b_adapt=2 / b_bias=0 / direct=3 / weightb=1 / open_gop=0 / weightp=2 / keyint=250 / keyint_min=25 / scenecut=40 / intra_refresh=0 / rc_lookahead=50 / rc=2pass / mbtree=1 / bitrate=2500 / ratetol=1.0 / qcomp=0.60 / qpmin=0 / qpmax=69 / qpstep=4 / cplxblur=20.0 / qblur=0.5 / ip_ratio=1.40 / aq=1:1.00
Default : Yes
Forced : No

Audio #1
ID : 2
Format : AC-3
Format/Info : Audio Coding 3
Commercial name : Dolby Digital
Codec ID : A_AC3
Duration : 2 h 16 min
Bit rate mode : Constant
Bit rate : 448 kb/s
Channel(s) : 6 channels
Channel layout : L R C LFE Ls Rs
Sampling rate : 48.0 kHz
Frame rate : 31.250 FPS (1536 SPF)
Bit depth : 16 bits
Compression mode : Lossy
Stream size : 438 MiB (11%)
Language : Russian
Service kind : Complete Main
Default : Yes
Forced : No

Audio #2
ID : 3
Format : AC-3
Format/Info : Audio Coding 3
Commercial name : Dolby Digital
Codec ID : A_AC3
Duration : 2 h 16 min
Bit rate mode : Constant
Bit rate : 448 kb/s
Channel(s) : 6 channels
Channel layout : L R C LFE Ls Rs
Sampling rate : 48.0 kHz
Frame rate : 31.250 FPS (1536 SPF)
Bit depth : 16 bits
Compression mode : Lossy
Stream size : 438 MiB (11%)
Language : English
Service kind : Complete Main
Default : No
Forced : No

Audio #3
ID : 4
Format : AC-3
Format/Info : Audio Coding 3
Commercial name : Dolby Digital
Codec ID : A_AC3
Duration : 2 h 16 min
Bit rate mode : Constant
Bit rate : 448 kb/s
Channel(s) : 6 channels
Channel layout : L R C LFE Ls Rs
Sampling rate : 48.0 kHz
Frame rate : 31.250 FPS (1536 SPF)
Bit depth : 16 bits
Compression mode : Lossy
Stream size : 438 MiB (11%)
Language : French
Service kind : Complete Main
Default : No
Forced : No

Text #1
ID : 5
Format : PGS
Muxing mode : zlib
Codec ID : S_HDMV/PGS
Codec ID/Info : Picture based subtitle format used on BDs/HD-DVDs
Duration : 2 h 14 min
Bit rate : 5 162 b/s
Count of elements : 1218
Stream size : 4.98 MiB (0%)
Title : Russian
Language : Russian
Default : Yes
Forced : No

Text #2
ID : 6
Format : PGS
Muxing mode : zlib
Codec ID : S_HDMV/PGS
Codec ID/Info : Picture based subtitle format used on BDs/HD-DVDs
Duration : 2 h 7 min
Bit rate : 6 698 b/s
Count of elements : 1240
Stream size : 6.10 MiB (0%)
Title : english
Language : English
Default : No
Forced : No

Text #3
ID : 7
Format : PGS
Codec ID : S_HDMV/PGS
Codec ID/Info : Picture based subtitle format used on BDs/HD-DVDs
Duration : 2 h 7 min
Bit rate : 15.6 kb/s
Count of elements : 1240
Stream size : 14.2 MiB (0%)
Title : francais
Language : French
Default : No
Forced : No

Text #4
ID : 8
Format : PGS
Muxing mode : zlib
Codec ID : S_HDMV/PGS
Codec ID/Info : Picture based subtitle format used on BDs/HD-DVDs
Duration : 2 h 7 min
Bit rate : 5 250 b/s
Count of elements : 1150
Stream size : 4.78 MiB (0%)
Title : deutsch
Language : German
Default : No
Forced : No

Text #5
ID : 9
Format : PGS
Muxing mode : zlib
Codec ID : S_HDMV/PGS
Codec ID/Info : Picture based subtitle format used on BDs/HD-DVDs
Duration : 2 h 7 min
Bit rate : 6 712 b/s
Count of elements : 1240
Stream size : 6.11 MiB (0%)
Title : espanol
Language : Spanish
Default : No
Forced : No

Text #6
ID : 10
Format : PGS
Muxing mode : zlib
Codec ID : S_HDMV/PGS
Codec ID/Info : Picture based subtitle format used on BDs/HD-DVDs
Duration : 2 h 7 min
Bit rate : 6 127 b/s
Count of elements : 1240
Stream size : 5.58 MiB (0%)
Title : italiano
Language : Italian
Default : No
Forced : No

Text #7
ID : 11
Format : PGS
Muxing mode : zlib
Codec ID : S_HDMV/PGS
Codec ID/Info : Picture based subtitle format used on BDs/HD-DVDs
Duration : 2 h 7 min
Bit rate : 6 579 b/s
Count of elements : 1240
Stream size : 5.99 MiB (0%)
Title : nederlands
Language : Dutch
Default : No
Forced : No

Text #8
ID : 12
Format : PGS
Muxing mode : zlib
Codec ID : S_HDMV/PGS
Codec ID/Info : Picture based subtitle format used on BDs/HD-DVDs
Duration : 2 h 7 min
Bit rate : 6 070 b/s
Count of elements : 1240
Stream size : 5.53 MiB (0%)
Title : portugues
Language : Portuguese
Default : No
Forced : No

Text #9
ID : 13
Format : PGS
Muxing mode : zlib
Codec ID : S_HDMV/PGS
Codec ID/Info : Picture based subtitle format used on BDs/HD-DVDs
Duration : 2 h 7 min
Bit rate : 9 325 b/s
Count of elements : 1264
Stream size : 8.48 MiB (0%)
Title : japanese
Language : Japanese
Default : No
Forced : No

Text #10
ID : 14
Format : PGS
Muxing mode : zlib
Codec ID : S_HDMV/PGS
Codec ID/Info : Picture based subtitle format used on BDs/HD-DVDs
Duration : 2 h 7 min
Bit rate : 7 951 b/s
Count of elements : 1240
Stream size : 7.24 MiB (0%)
Title : hebrew
Language : Hebrew
Default : No
Forced : No

Text #11
ID : 15
Format : PGS
Muxing mode : zlib
Codec ID : S_HDMV/PGS
Codec ID/Info : Picture based subtitle format used on BDs/HD-DVDs
Duration : 2 h 7 min
Bit rate : 5 826 b/s
Count of elements : 1240
Stream size : 5.31 MiB (0%)
Title : svenska
Language : Swedish
Default : No
Forced : No

Text #12
ID : 16
Format : PGS
Muxing mode : zlib
Codec ID : S_HDMV/PGS
Codec ID/Info : Picture based subtitle format used on BDs/HD-DVDs
Duration : 2 h 7 min
Bit rate : 8 307 b/s
Count of elements : 1240
Stream size : 7.57 MiB (0%)
Title : chinese
Language : Chinese
Default : No
Forced : No

Text #13
ID : 17
Format : PGS
Muxing mode : zlib
Codec ID : S_HDMV/PGS
Codec ID/Info : Picture based subtitle format used on BDs/HD-DVDs
Duration : 2 h 7 min
Bit rate : 7 102 b/s
Count of elements : 1240
Stream size : 6.47 MiB (0%)
Title : arabic
Language : Arabic
Default : No
Forced : No
Like this post to see ed2k links  [3.76 Gb]
User avatar
ghost
Site Admin
Posts: 6202
Likes:
Joined: Sun Mar 07, 2004 1:00 am

Re: [REL] Idi i Smotri AKA Come and See (1985)

Post by ghost »   0 likes

I think i missed this movie :shock:

Thanks for the upgrade!
Post Reply