[REL] Resultado Final (1998)

User avatar
Sully23
Posts: 355
Likes:
Joined: Wed May 10, 2017 7:41 pm

Re: [REL] Resultado Final (1998)

Postby Sully23 » Tue May 16, 2017 4:03 pm  0 likes

Since the film has been uploaded is it good if they already released a bluray version? Or at least the Daphne scene but improved quality

Although they say the movie was bad and only dafne appears at 1:30 not always a movie are good only if they look like a cameo is like when lindsey lohan (already adult) because machete is bad but because it appeared lohan made me change my mind the same jessica Dawn in shower

Daphne in the movie would have less than 12 when she looks in the mirror doing topless to see if they want to get out breast but she has flat good few times it's at 12 is still surfing board
User avatar
ARTHORIUS
Posts: 3709
Likes:
Joined: Sun Mar 26, 2006 1:00 am

Re: [REL] Resultado Final (1998)

Postby ARTHORIUS » Tue May 23, 2017 8:18 am  0 likes

Another movie that need an upgrade ;)
ONE RING TO BRING EM ALL
User avatar
Sully23
Posts: 355
Likes:
Joined: Wed May 10, 2017 7:41 pm

Re: [REL] Resultado Final (1998)

Postby Sully23 » Tue Jun 05, 2018 7:42 pm  0 likes

Although it is not released on DVD but when it is retransmitted the quality improves
User avatar
Phuzzy4242
Site Admin
Posts: 6626
Likes:
Joined: Sun Aug 23, 2009 1:00 am

Re: [REL] Resultado Final (1998)

Postby Phuzzy4242 » Sun Jun 10, 2018 6:10 am  26 likes

This is a bigger picture but the quality isn't a whole lot better. File size isn't too much bigger so it may be worth it to you to download.
Spoiler:

General
Complete name : E:\MovieShare\Releases\Resultado Final (1998) 720x480.avi
Format : AVI
Format/Info : Audio Video Interleave
File size : 612 MiB
Duration : 1 h 34 min
Overall bit rate mode : Variable
Overall bit rate : 903 kb/s
Writing application : MEncoder Sherpya-SVN-r27811-4.2.5
Writing library : MPlayer

Video
ID : 0
Format : MPEG-4 Visual
Format profile : Simple@L3
Format settings, BVOP : No
Format settings, QPel : No
Format settings, GMC : No warppoints
Format settings, Matrix : Default (H.263)
Codec ID : XVID
Codec ID/Hint : XviD
Duration : 1 h 34 min
Bit rate : 767 kb/s
Width : 720 pixels
Height : 480 pixels
Display aspect ratio : 3:2
Frame rate : 25.000 FPS
Color space : YUV
Chroma subsampling : 4:2:0
Bit depth : 8 bits
Scan type : Progressive
Compression mode : Lossy
Bits/(Pixel*Frame) : 0.089
Stream size : 520 MiB (85%)
Writing library : XviD 1.1.2 (UTC 2006-11-01)

Audio
ID : 1
Format : MPEG Audio
Format version : Version 1
Format profile : Layer 3
Mode : Joint stereo
Mode extension : MS Stereo
Codec ID : 55
Codec ID/Hint : MP3
Duration : 1 h 34 min
Bit rate mode : Variable
Bit rate : 123 kb/s
Channel(s) : 2 channels
Sampling rate : 44.1 kHz
Compression mode : Lossy
Stream size : 83.5 MiB (14%)
Alignment : Aligned on interleaves
Interleave, duration : 26 ms (0.65 video frame)
Interleave, preload duratio : 510 ms


Like this post to see ed2k links  [611.91 Mb]
User avatar
Sully23
Posts: 355
Likes:
Joined: Wed May 10, 2017 7:41 pm

Re: [REL] Resultado Final (1998)

Postby Sully23 » Thu Mar 14, 2019 2:37 pm  0 likes

I'll wait for the High Quality

Return to “Spain”

Who is online

Users browsing this forum: No registered users and 1 guest