[REL] Memorias de Leticia Valle (1980)

User avatar
Phuzzy4242
Site Admin
Posts: 6667
Likes:
Joined: Sun Aug 23, 2009 1:00 am

[REL] Memorias de Leticia Valle (1980)

Postby Phuzzy4242 » Fri Apr 05, 2019 5:51 am  12 likes

AKA Memoirs of Leticia Valle
[Image]
https://www.imdb.com/title/tt0079544
https://www.rarefilmfinder.com/movie.php?id=18757
Leticia Valle is an 11-year old young girl, who, after her father comes back invalid from the war in Morocco, moves with her family – her father and her aunt – from Valladolid to the village of Simancas in the countryside. Her teacher thinks she is talented in music and suggests her to start taking music lessons with Dona Luisa, the wife of the Director of the local Archive – Don Daniel - who shortly after becomes her private tutor in school related subjects. Leticia starts feeling attracted to Don Daniel and slowly seduces him, eventually making him commit suicide in order to avoid a scandal. The movie is taken from a novel of Spanish writer Rosa Chacel.

I couldn't find this in any higher resolution. No special scenes but Emma Suárez is cute. She's supposed to be 11 years old but was a young-looking 16 during filming.

[Image] [Image] [Image]
[Image] [Image] [Image]
[Image] [Image] [Image]
Spoiler:

General
Complete name : F:\Online\Releases\Memorias de Leticia Valle (1979) 360p.mp4
Format : MPEG-4
Format profile : Base Media / Version 2
Codec ID : mp42 (isom/mp42)
File size : 264 MiB
Duration : 1 h 40 min
Overall bit rate mode : Variable
Overall bit rate : 366 kb/s
Encoded date : UTC 2018-10-26 05:14:04
Tagged date : UTC 2018-10-26 05:14:04

Video
ID : 1
Format : AVC
Format/Info : Advanced Video Codec
Format profile : Baseline@L2.1
Format settings : 1 Ref Frames
Format settings, CABAC : No
Format settings, RefFrames : 1 frame
Codec ID : avc1
Codec ID/Info : Advanced Video Coding
Duration : 1 h 40 min
Bit rate : 267 kb/s
Width : 480 pixels
Height : 360 pixels
Display aspect ratio : 4:3
Frame rate mode : Constant
Frame rate : 24.870 FPS
Color space : YUV
Chroma subsampling : 4:2:0
Bit depth : 8 bits
Scan type : Progressive
Bits/(Pixel*Frame) : 0.062
Stream size : 193 MiB (73%)
Title : ISO Media file produced by Google Inc. Created on: 10/25/2018.
Encoded date : UTC 2018-10-26 05:14:04
Tagged date : UTC 2018-10-26 05:14:04
Codec configuration box : avcC

Audio
ID : 2
Format : AAC LC
Format/Info : Advanced Audio Codec Low Complexity
Codec ID : mp4a-40-2
Duration : 1 h 40 min
Bit rate mode : Variable
Bit rate : 96.0 kb/s
Channel(s) : 2 channels
Channel layout : L R
Sampling rate : 44.1 kHz
Frame rate : 43.066 FPS (1024 SPF)
Compression mode : Lossy
Stream size : 69.2 MiB (26%)
Title : ISO Media file produced by Google Inc. Created on: 10/25/2018.
Encoded date : UTC 2018-10-26 05:14:04
Tagged date : UTC 2018-10-26 05:14:04

Like this post to see ed2k links  [263.60 Mb]
User avatar
Sully23
Posts: 401
Likes:
Joined: Wed May 10, 2017 7:41 pm

Re: [REL] Memorias de Leticia Valle (1980)

Postby Sully23 » Fri Apr 05, 2019 2:52 pm  0 likes

Mmmm caught, you like Spanish actresses

The plot is about an encounter with an older man who is his tutor and this case they chose an older girl for the cast

Return to “Spain”

Who is online

Users browsing this forum: No registered users and 1 guest