[REL] Una Casa en las afueras (1995)

Rich
Posts: 2821
Likes:
Joined: Sat Feb 21, 2004 1:00 am

[REL] Una Casa en las afueras (1995)

Post by Rich »   0 likes

Una Casa en las afueras (1995)

[Image]
Daniel is a yuppie hasn't been been able to lead a satisfactory sentimental life. One day he meets Yolanda, a beautiful young woman who has a daughter, Patricia, and who hasn't been very lucky in life either.

They decide to get together and they go to live in his house, an old and eerie mansion. Soon enough, their relationship starts to become difficult; the isolation of the house and Daniel's mysterious past transform Yolanda's illusions of happiness into an existence of fear and distrust.

Finally Yolanda decides to find out who the person she's living with really is, and in doing so she puts her life and her daughter's at risk...
Available through eBay.

http://imdb.com/title/tt0112640/

thanks, Rich :)
User avatar
kev
Site Admin
Posts: 3536
Likes:
Joined: Tue Jan 17, 2006 1:00 am

Re: [REL] Una Casa en las afueras (1995)

Post by kev »   0 likes

Rich; don't know if your image was something like this, but it seems to be gone now, so here's some poster art:

[Image]

kev. :)
billanben
Posts: 1396
Likes:
Joined: Tue Feb 07, 2006 1:00 am

Re: [REL] Una Casa en las afueras (1995)

Post by billanben »   4 likes

Downloading this now - looks like preview ??

Like this post to see ed2k links  [30.35 Mb]
Rich
Posts: 2821
Likes:
Joined: Sat Feb 21, 2004 1:00 am

Re: [REL] Una Casa en las afueras (1995)

Post by Rich »   7 likes

Rich
Posts: 2821
Likes:
Joined: Sat Feb 21, 2004 1:00 am

Re: [REL] Una Casa en las afueras (1995)

Post by Rich »   0 likes

http://www.rarefilmfinder.com/showfilm.php?id=744

Trailer...

http://www.youtube.com/watch?v=qXsbAmhyIK8

modern Spanish films are facinating, they somehow base a film around a little girl and focus on nothing but the drama of the parents! i've seen this in soooo many Spanish films! The children go out the window so the actors can engage in their melodramatic furore, the films totally neglect the childs predicament lol great for encouraging inward emotional outward responses haha :wall :wall :wall
User avatar
popdrome
Global Moderator
Posts: 2241
Likes:
Joined: Sat Mar 25, 2006 1:00 am

Re: [REL] Una Casa en las afueras (1995)

Post by popdrome »   0 likes

Rich wrote:modern Spanish films are facinating, they somehow base a film around a little girl and focus on nothing but the drama of the parents! i've seen this in soooo many Spanish films! The children go out the window so the actors can engage in their melodramatic furore, the films totally neglect the childs predicament lol great for encouraging inward emotional outward responses haha :wall :wall :wall
Agree 100% :wall
User avatar
kev
Site Admin
Posts: 3536
Likes:
Joined: Tue Jan 17, 2006 1:00 am

Re: [REL] Una Casa en las afueras (1995)

Post by kev »   0 likes

Damn! Pix just seem to keep disappearing...

Here's another try:
[Image]

Whoa! It's available on DVD:
http://www.dvdgo.com/una-casa-en-las-af ... 30381.aspx

DVD Cover Art:
Front:
[Image]
Back:
[Image]

An eMule link has gotta be in the near future... :pray

kev.
ldieguez_
Posts: 74
Likes:
Joined: Sat Mar 25, 2006 1:00 am

Re: [REL] Una Casa en las afueras (1995)

Post by ldieguez_ »   11 likes

User avatar
idler
Posts: 1107
Likes:
Joined: Sat Apr 01, 2006 1:00 am

Re: [REL] Una Casa en las afueras (1995)

Post by idler »   0 likes

Format : AVI
Format/Info : Audio Video Interleave
Format profile : OpenDML
File size : 3.48 GiB
Duration : 1h 36mn
Overall bit rate : 5 184 Kbps
Writing application : Lavf52.31.0

Video
Format : MPEG Video
Codec ID : mpg2
Codec ID/Info : (MPEG-1/2) FFmpeg
Codec ID/Hint : Ffmpeg
Duration : 1h 36mn
Bit rate : 4 983 Kbps
Width : 720 pixels
Height : 576 pixels
Display aspect ratio : 5/4
Frame rate : 25.000 fps
Standard : PAL
Resolution : 24 bits
Bits/(Pixel*Frame) : 0.481
Stream size : 3.35 GiB (96%)

Audio
Format : AC-3
Format/Info : Audio Coding 3
Codec ID : 2000
Bit rate mode : Constant
Bit rate : 192 Kbps
Channel(s) : 2 channels
Channel positions : L R
Sampling rate : 48.0 KHz
Resolution : 16 bits
Stream size : 132 MiB (4%)
Alignment : Aligned on interleaves
Interleave, duration : 32 ms (0.80 video frame)
[Image]

What about shifting this to [REL]?
FLL
Posts: 2191
Likes:
Joined: Mon Aug 28, 2006 1:00 am

Re: [REL] Una Casa en las afueras (1995)

Post by FLL »   0 likes

Thanks LD, idler! :clap :clap
Post Reply