[REL] El sueño de Iván (2011)

User avatar
starfish21
Posts: 3376
Likes:
Joined: Tue May 23, 2006 1:00 am

[REL] El sueño de Iván (2011)

Post by starfish21 »   25 likes

El sueño de Iván already well sourced on emule.

Like this post to see ed2k links  [1.26 Gb]
User avatar
ptguardian
Posts: 4479
Likes:
Joined: Wed Sep 17, 2008 1:00 am

Re: Best Movie Blog

Post by ptguardian »   0 likes

User avatar
Phuzzy4242
Site Admin
Posts: 7686
Likes:
Joined: Sun Aug 23, 2009 1:00 am

Re: [REL] El sueño de Iván (2011)

Post by Phuzzy4242 »   1 likes

El sueño de Iván (2011)
Ivan's Dream

http://www.rarefilmfinder.com/showfilm.php?id=32386
http://www.imdb.com/title/tt1727787/
http://thewildboys.flickzone1.info/view ... hp?id=1179
Wildboys wrote:Ivan is 11 yo boy who will play football against world football stars and get over his first love.
IMDb wrote:Great slang from different countries. The subtitles are spot on. The cast reflects the international story and production. The kids look and act like kids. Even the irresponsible adults still show a care and regard for the children. Interesting political undertones of international soccer as a business. while fund raising for UNICEF. The Movie shows some of the nicer parts of Mexico city we do not usually see in the US. The Argentine Soccer reporters have a dynamic that mirrors some of our nutty football commentary in the US. Overall a refreshing Non Disney film devoid of pink, plastic surgery and lip gloss.
User avatar
popdrome
Global Moderator
Posts: 2241
Likes:
Joined: Sat Mar 25, 2006 1:00 am

[REL] El sueno de Ivan (2011)

Post by popdrome »   12 likes

I have already a dvd rip of El Sueno de Ivan, I was about-to release it here, but I noticed there's a better rip on the mule,
I need help to retrieve it, so please HELP!

put this into your downloads:
Like this post to see ed2k links  [2.79 Gb]

the 1 (and only) source is sometimes online, but mostly not when I am. I've managed to dl 50% but I need the other half. (and you too)

This is mostly about a football boy (so BLs where are you?), but his girlfriend (a spanish blonde mind you)
is about the cutest I have seen. AND she has considerable screen time.

So yeah - cute boy and cute girl, need I say more? please help.

https://www.imdb.com/title/tt1727787/

[Image]

Don't go quietly into the night.
User avatar
Sully23
Posts: 1012
Likes:
Joined: Wed May 10, 2017 7:41 pm

Re: [REQ] El sueño de Ivan

Post by Sully23 »   0 likes

Carla Campra is the blonde and pretty actress, I see that it has a long way but nothing risky performances, but my favorite Spanish will be the Infantas (daughters of the king, I don't know why they don't use the title of princess) Melody and Dafne Fernandez
User avatar
relic
Posts: 84
Likes:
Joined: Tue Nov 01, 2016 7:38 am

Re: [REL] El sueno de Ivan (2011)

Post by relic »   1 likes

Here: https://yadi.sk/d/bSAY4_EiTqJPK
Thanks to BK

relic
User avatar
popdrome
Global Moderator
Posts: 2241
Likes:
Joined: Sat Mar 25, 2006 1:00 am

Re: [REL] El sueno de Ivan (2011)

Post by popdrome »   0 likes

Yeah ok, not a RELease though until:
someone shares the full download that I mentioned
someone shares a (verified) DVD rip over eMule.

Don't go quietly into the night.
User avatar
Phuzzy4242
Site Admin
Posts: 7686
Likes:
Joined: Sun Aug 23, 2009 1:00 am

Re: [REQ] El sueno de Ivan (2011)

Post by Phuzzy4242 »   12 likes

NOT the same rip that popdrome posted - that is still trickling in but has never completed. This rip is from relic's DD link. Thanks. relic!
Spoiler:

General
Complete name : K:\Online\Releases\El Sueno de Ivan AKA Ivan's Dream (2011) 720p.avi
Format : AVI
Format/Info : Audio Video Interleave
Format profile : OpenDML
File size : 1.26 GiB
Duration : 1 h 37 min
Overall bit rate : 1 858 kb/s
Movie name : sue駉ivan
Writing application : Lavf52.78.4
Original source form/Name : EL SUENO DE IVAN

Video
ID : 0
Format : MPEG-4 Visual
Format profile : Advanced Simple@L5
Format settings : BVOP2
Format settings, BVOP : 2
Format settings, QPel : No
Format settings, GMC : No warppoints
Format settings, Matrix : Default (H.263)
Muxing mode : Packed bitstream
Codec ID : XVID
Codec ID/Hint : XviD
Duration : 1 h 37 min
Bit rate : 1 397 kb/s
Width : 720 pixels
Height : 388 pixels
Display aspect ratio : 1.85:1
Frame rate : 25.000 FPS
Color space : YUV
Chroma subsampling : 4:2:0
Bit depth : 8 bits
Scan type : Progressive
Compression mode : Lossy
Bits/(Pixel*Frame) : 0.200
Stream size : 972 MiB (75%)
Writing library : XviD 1.2.1 (UTC 2008-12-04)

Audio
ID : 1
Format : AC-3
Format/Info : Audio Coding 3
Commercial name : Dolby Digital
Codec ID : 2000
Duration : 1 h 37 min
Bit rate mode : Constant
Bit rate : 448 kb/s
Channel(s) : 6 channels
Channel layout : L R C LFE Ls Rs
Sampling rate : 48.0 kHz
Frame rate : 31.250 FPS (1536 SPF)
Compression mode : Lossy
Stream size : 312 MiB (24%)
Alignment : Aligned on interleaves
Interleave, duration : 32 ms (0.80 video frame)
Interleave, preload duration : 32 ms
Service kind : Complete Main
Like this post to see ed2k links  [1.26 Gb]
User avatar
Warg
Posts: 772
Likes:
Joined: Tue Jul 12, 2016 11:24 am

Re: [REL] El sueno de Ivan (2011)

Post by Warg »   1 likes

popdrome wrote:put this into your downloads:
el.sueno.de.ivan.2011.AC3.es.HD.1080p.x264.mkv

the 1 (and only) source is sometimes online, but mostly not when I am. I've managed to dl 50% but I need the other half. (and you too)
This version is complete now and has six sources for the moment ... ;)
User avatar
Phuzzy4242
Site Admin
Posts: 7686
Likes:
Joined: Sun Aug 23, 2009 1:00 am

Re: [REL] El sueño de Iván (2011)

Post by Phuzzy4242 »   0 likes

Yeah, mine completed and I was just going to tell everyone but you beat me to it. :)
Post Reply