[REL] Bäst i Sverige! (2002)

Rich
Posts: 2824
Likes:
Joined: Sat Feb 21, 2004 1:00 am

[REL] Bäst i Sverige! (2002)

Postby Rich » Tue Feb 24, 2004 3:01 pm  6 likes

User avatar
ptguardian
Posts: 4479
Likes:
Joined: Wed Sep 17, 2008 1:00 am

Re: [REL] Bäst i Sverige! (2002)

Postby ptguardian » Tue Feb 01, 2011 9:18 am  1 likes

katzenjammer
Posts: 621
Likes:
Joined: Mon Sep 01, 2008 1:00 am

Re: [REL] Bäst i Sverige! (2002)

Postby katzenjammer » Mon May 16, 2011 9:00 pm  6 likes

[Image]
[Image]
[Image]
[Image]
[Image]
[Image]
[Image]
[Image]
[Image]


Like this post to see ed2k links  [1.46 Gb]

Like this post to see ed2k links  [127.9 Kb]
Like this post to see ed2k links  [10.96 Mb]

[spoiler]Complete name : M:\FLM Favoritter I\Sverige\Bäst.i.Sverige.DVDrip.x264.Katzenjammer.mkv
Format : Matroska
File size : 1.46 GiB
Duration : 1h 24mn
Overall bit rate : 2 467 Kbps
Encoded date : UTC 2011-04-25 18:55:35
Writing application : mkvmerge v4.6.0 ('Still Crazy After All These Years') built on Mar 10 2011 02:50:32
Writing library : libebml v1.2.0 + libmatroska v1.1.0

Video
ID : 1
Format : AVC
Format/Info : Advanced Video Codec
Format profile : High@L4.1
Format settings, CABAC : Yes
Format settings, ReFrames : 3 frames
Muxing mode : Container profile=Unknown@4.1
Codec ID : V_MPEG4/ISO/AVC
Duration : 1h 24mn
Bit rate : 2 017 Kbps
Width : 704 pixels
Height : 400 pixels
Display aspect ratio : 16:9
Frame rate : 25.000 fps
Color space : YUV
Chroma subsampling : 4:2:0
Bit depth : 8 bits
Scan type : Progressive
Bits/(Pixel*Frame) : 0.287
Stream size : 1.16 GiB (80%)
Writing library : x264 core 114 r1913 5fd3dce

Audio
ID : 2
Format : AC-3
Format/Info : Audio Coding 3
Mode extension : CM (complete main)
Codec ID : A_AC3
Duration : 1h 24mn
Bit rate mode : Constant
Bit rate : 448 Kbps
Channel(s) : 2 channels
Channel positions : Front: L R
Sampling rate : 48.0 KHz
Stream size : 271 MiB (18%)
[/spoiler]
User avatar
loverboy
Posts: 1832
Likes:
Joined: Sun Sep 24, 2006 1:00 am

Re: [REL] Bäst i Sverige! (2002)

Postby loverboy » Mon May 16, 2011 9:24 pm  0 likes

Thanks kj.....this previews well & looks cool!

I'm about 50% complete on this (down to our prior arrangement) so can help in initally sharing.

lb
katzenjammer
Posts: 621
Likes:
Joined: Mon Sep 01, 2008 1:00 am

Re: [REL] Bäst i Sverige! (2002)

Postby katzenjammer » Mon May 16, 2011 10:25 pm  0 likes

Screenshots posted
User avatar
ghost
Site Admin
Posts: 3380
Likes:
Joined: Sun Mar 07, 2004 1:00 am

Re: [REL] Bäst i Sverige! (2002)

Postby ghost » Tue May 17, 2011 8:32 pm  0 likes

:thumbsup
User avatar
loverboy
Posts: 1832
Likes:
Joined: Sun Sep 24, 2006 1:00 am

Re: [REL] Bäst i Sverige! (2002)

Postby loverboy » Fri May 20, 2011 7:33 pm  0 likes

Can we give you a little nudge kj?

Several of us stuck at 44% with nothing happening for a few days.

Thanks!

lb
BizarreLoveTriangle
Posts: 1627
Likes:
Joined: Sat Sep 19, 2009 1:00 am

Re: [REL] Bäst i Sverige! (2002)

Postby BizarreLoveTriangle » Sat May 21, 2011 1:40 am  0 likes

I finished first :icon_1dancingban

Thanks kj :thumbsup
User avatar
loverboy
Posts: 1832
Likes:
Joined: Sun Sep 24, 2006 1:00 am

Re: [REL] Bäst i Sverige! (2002)

Postby loverboy » Sat May 21, 2011 9:39 am  0 likes

Completed.....thanks kj.

lb
katzenjammer
Posts: 621
Likes:
Joined: Mon Sep 01, 2008 1:00 am

Re: [REL] Bäst i Sverige! (2002)

Postby katzenjammer » Sat May 21, 2011 9:38 pm  0 likes

Sadly my emule fireball lives its own life, i can control the slots, give release/powershare to file, but it seems as less available files that i share overrun my release-settings. Need to limit shared files next time i release a new rip :(

Return to “Sweden”

Who is online

Users browsing this forum: No registered users and 2 guests