[RREL] Häxa i familjen, En (2000)

User avatar
ghost
Site Admin
Posts: 3598
Likes:
Joined: Sun Mar 07, 2004 1:00 am

[RREL] Häxa i familjen, En (2000)

Postby ghost » Sun Jan 08, 2006 3:52 pm  11 likes

[Image]
[Image]

A girl of roughly nine years and her pal come to view our heroine's new nanny as a witch. Might the lass set aside her resentment towards her little brother, approximately six, and rescue the boy once it appears he is about to wind up in the nasty ghoul's stew? Think of a better done update of Olle Hexe to get the idea.


http://imdb.com/title/tt0210738/

http://cvmc.net/movie.jsp?movie_id=490

Incomplete source...

Like this post to see ed2k links  [661.03 Mb]

___________

German DVB-T Rip:

[Image]
[Image]
[Image]

Like this post to see ed2k links  [745.33 Mb]
User avatar
Jacen
Posts: 278
Likes:
Joined: Fri Apr 14, 2006 1:00 am

Re: [RREL] Häxa i familjen, En (2000)

Postby Jacen » Fri Dec 04, 2009 1:40 pm  0 likes

Does anyone still have this?
There doesn't seem to be any sources now.
I would love to have this. :)
User avatar
idler
Posts: 1107
Likes:
Joined: Sat Apr 01, 2006 1:00 am

Re: [RREL] Häxa i familjen, En (2000)

Postby idler » Fri Dec 04, 2009 2:29 pm  0 likes

Restartet the German 745 MB version. :heart
User avatar
Jacen
Posts: 278
Likes:
Joined: Fri Apr 14, 2006 1:00 am

Re: [RREL] Häxa i familjen, En (2000)

Postby Jacen » Tue Dec 08, 2009 12:39 pm  0 likes

Thanks! I finally recognized that the girl
is the same as the one in Den bäste sommaren.
User avatar
starfish21
Posts: 3376
Likes:
Joined: Tue May 23, 2006 1:00 am

Re: [RREL] Häxa i familjen, En (2000)

Postby starfish21 » Sat Mar 10, 2012 9:33 pm  18 likes

[Image]



[Image]

[Image]

[Image]

[Image]

[Image]

[Image]

[Image]

[Image]

[Image]

[Image]

[Image]

[Image]

[Image]

[Image]

[Image]

[Image]

[Image]

[Image]

[Image] [Image] [Image]

[Image] [Image] [Image]

[Image] [Image] [Image]

[Image] [Image] [Image]

[Image] [Image] [Image]

[Image] [Image] [Image]

[Image]


General
Complete name :En.häxa.i.familjen.2000.SWEDISH.DVDRip.XviD-Electron_TF.avi
Format : AVI
Format/Info : Audio Video Interleave
File size : 700 MiB
Duration : 1h 18mn
Overall bit rate : 1 247 Kbps
Writing application : FairUse Wizard - http://fairusewizard.com
Writing library : The best and REALLY easy backup tool

Video
ID : 0
Format : MPEG-4 Visual
Format profile : Advanced Simple@L5
Format settings, BVOP : 1
Format settings, QPel : No
Format settings, GMC : No warppoints
Format settings, Matrix : Default (MPEG)
Muxing mode : Packed bitstream
Codec ID : XVID
Codec ID/Hint : XviD
Duration : 1h 18mn
Bit rate : 1 110 Kbps
Width : 656 pixels
Height : 368 pixels
Display aspect ratio : 16:9
Frame rate : 25.000 fps
Color space : YUV
Chroma subsampling : 4:2:0
Bit depth : 8 bits
Scan type : Progressive
Compression mode : Lossy
Bits/(Pixel*Frame) : 0.184
Stream size : 623 MiB (89%)
Writing library : XviD 1.2.0.dev47 (UTC 2006-11-01)

Audio
ID : 1
Format : MPEG Audio
Format version : Version 1
Format profile : Layer 3
Mode : Joint stereo
Mode extension : MS Stereo
Codec ID : 55
Codec ID/Hint : MP3
Duration : 1h 18mn
Bit rate mode : Constant
Bit rate : 128 Kbps
Channel(s) : 2 channels
Sampling rate : 48.0 KHz
Compression mode : Lossy
Stream size : 71.8 MiB (10%)
Alignment : Aligned on interleaves
Interleave, duration : 40 ms (1.00 video frame)
Interleave, preload duration : 504 ms
Writing library : LAME3.97
Encoding settings : -m j -V 4 -q 2 -lowpass 17 -b 128

Like this post to see ed2k links  [699.94 Mb]
User avatar
ptguardian
Posts: 4479
Likes:
Joined: Wed Sep 17, 2008 1:00 am

Re: [RREL] Häxa i familjen, En (2000)

Postby ptguardian » Sat Mar 10, 2012 10:18 pm  0 likes

Thanks Starfish. Nice upgrade. :D
User avatar
starfish21
Posts: 3376
Likes:
Joined: Tue May 23, 2006 1:00 am

Re: [RREL] Häxa i familjen, En (2000)

Postby starfish21 » Sun Mar 11, 2012 1:37 pm  0 likes

you're most welcome Guest.
you're most welcome Guest.
User avatar
Pardal2008
Posts: 325
Likes:
Joined: Wed Feb 22, 2012 10:23 pm

Re: [RREL] Häxa i familjen, En (2000)

Postby Pardal2008 » Sun Mar 11, 2012 3:35 pm  0 likes

En.häxa.i.familjen.2000.SWEDISH.DVDRip.XviD-Electron_TF.avi

Thank you starfish21, good work ;)
Pardal
All the little girls are in love only to me
User avatar
donkeykog
Posts: 778
Likes:
Joined: Fri Aug 02, 2013 1:33 am

Re: [RREL] Häxa i familjen, En (2000)

Postby donkeykog » Thu Apr 03, 2014 6:29 am  0 likes

New pic from a former FLM cutie turned DJ

Rebecca Scheja - the one on top :O


[Image]
User avatar
ptguardian
Posts: 4479
Likes:
Joined: Wed Sep 17, 2008 1:00 am

Re: [RREL] Häxa i familjen, En (2000)

Postby ptguardian » Sat Apr 05, 2014 9:47 am  0 likes

Looks like she was turned into a Kardashian android... :lol:

Return to “Sweden”

Who is online

Users browsing this forum: No registered users and 1 guest