[REL] Lotta 2 - Lotta flyttar hemifrån (1993)

ldieguez_
Posts: 74
Likes:
Joined: Sat Mar 25, 2006 1:00 am

[REL] Lotta 2 - Lotta flyttar hemifrån (1993)

Post by ldieguez_ »   23 likes

User avatar
rmt@36
Posts: 475
Likes:
Joined: Thu Jan 26, 2006 1:00 am

Re: [REL] Lotta 2 - Lotta flyttar hemifrån (1993)

Post by rmt@36 »   0 likes

Thanks for this
sprocket
Posts: 229
Likes:
Joined: Sun Apr 02, 2006 1:00 am

Re: [REL] Lotta 2 - Lotta flyttar hemifrån (1993)

Post by sprocket »   0 likes

Yes thanks for your recent posts. :thumbsup
User avatar
Phuzzy4242
Site Admin
Posts: 7686
Likes:
Joined: Sun Aug 23, 2009 1:00 am

Re: [REL] Lotta 2 - Lotta flyttar hemifrån (1993)

Post by Phuzzy4242 »   24 likes

Since an ed2k link for Lotta 1 was just updated, here's a working link for Lotta 2...

Like this post to see ed2k links  [701.80 Mb]
User avatar
Sully23
Posts: 1409
Likes:
Joined: Wed May 10, 2017 7:41 pm

Re: [REL] Lotta 2 - Lotta flyttar hemifrån (1993)

Post by Sully23 »   1 likes

Now everything makes sense, there was a second film, the problem does not appear in RFF, I just thought it only existed in the Lotta 1 film franchise and a series
User avatar
Night457
Global Moderator
Posts: 6052
Likes:
Joined: Sat Dec 28, 2019 3:44 pm

Re: [REL] Lotta 2 - Lotta flyttar hemifrån (1993)

Post by Night457 »   22 likes

1080p UPGRADE
Lotta2advertising.jpg
A feisty five-year-old girl Lotta decides to move away from home. And no, she doesn't want to put on the stupid sweater.
Why I love Lotta:
Spoiler:

Lotta is a stubborn little egoist prone to grumpy and noisy outbursts when things do not go her way ... particularly when she is wakened suddenly from a bad dream. Her family and neighbors are incredibly tolerant and patient. Whether her mood is good or bad, I think she is hilarious!

However ... when she sees that other people are sad or upset, she watches them quietly and thinks. Her heart melts, and she decides to DO something about it to make them feel better. Aww...
vlcsnap-2023-02-22-13h39m14s386.jpg
vlcsnap-2023-02-22-13h39m35s567.jpg
vlcsnap-2023-02-22-13h40m22s496.jpg
vlcsnap-2023-02-22-13h41m39s437.jpg
vlcsnap-2023-02-22-13h42m36s972.jpg
vlcsnap-2023-02-22-13h43m33s706.jpg
vlcsnap-2023-02-22-13h45m44s463.jpg
About Teddy Bears and Easter witches:
Spoiler:

A "bamse" is a bear, specifically one that is a soft stuffed toy for young chidren. In English this is a "teddy bear". Lotta's bamse is named Bamsen, and it is actually a cute piggy. I kept his Swedish name in the subtitle translation.

I had never heard of Swedish children dressing up as "Easter witches" until I saw this movie.
In Sweden and Finland, it is an Easter tradition for children to dress as witches, old women and old men and go door to door for treats similar to the trick-or-treating tradition of Halloween on Maundy Thursday or the day before Easter (Holy Saturday).
https://en.wikipedia.org/wiki/Easter_witch

Lotta and her siblings dress up as Easter witches and go out for candy, with plans to have an Easter egg hunt on the later day.
This is my own smaller remux from a much larger file. Direct-download links for ALL the versions large and small are in the next post.

Specifications:
Spoiler:

Unique ID : 199607698778716286260136139445119174260 (0x962B0B5F299EC593B488702F368F4674)
Complete name : Lotta.2.Lotta.Flyttar.Hemifran.1993.SWEDISH.AC3.1080p.BluRay.x264.mkv
Format : Matroska
Format version : Version 4
File size : 2.61 GiB
Duration : 1 h 20 min
Overall bit rate : 4 643 kb/s
Writing application : Lavf57.71.100
Writing library : Lavf57.71.100
ErrorDetectionType : Per level 1

Video
ID : 1
Format : AVC
Format/Info : Advanced Video Codec
Format profile : High@L4
Format settings : CABAC / 4 Ref Frames
Format settings, CABAC : Yes
Format settings, Reference frames : 4 frames
Codec ID : V_MPEG4/ISO/AVC
Duration : 1 h 20 min
Bit rate : 4 000 kb/s
Width : 1 916 pixels
Height : 1 076 pixels
Display aspect ratio : 16:9
Frame rate mode : Constant
Frame rate : 25.000 FPS
Color space : YUV
Chroma subsampling : 4:2:0
Bit depth : 8 bits
Scan type : Progressive
Bits/(Pixel*Frame) : 0.078
Stream size : 2.20 GiB (84%)
Writing library : x264 core 152 r2854 e9a5903
Encoding settings : cabac=1 / ref=3 / deblock=1:0:0 / analyse=0x3:0x133 / me=hex / subme=7 / psy=1 / psy_rd=1.00:0.00 / mixed_ref=1 / me_range=16 / chroma_me=1 / trellis=1 / 8x8dct=1 / cqm=0 / deadzone=21,11 / fast_pskip=1 / chroma_qp_offset=-2 / threads=6 / lookahead_threads=1 / sliced_threads=0 / nr=0 / decimate=1 / interlaced=0 / bluray_compat=0 / constrained_intra=0 / bframes=3 / b_pyramid=2 / b_adapt=1 / b_bias=0 / direct=1 / weightb=1 / open_gop=0 / weightp=2 / keyint=250 / keyint_min=25 / scenecut=40 / intra_refresh=0 / rc_lookahead=40 / rc=2pass / mbtree=1 / bitrate=4000 / ratetol=1.0 / qcomp=0.60 / qpmin=10 / qpmax=51 / qpstep=4 / cplxblur=20.0 / qblur=0.5 / ip_ratio=1.40 / aq=1:1.00
Default : Yes
Forced : No

Audio
ID : 2
Format : AC-3
Format/Info : Audio Coding 3
Commercial name : Dolby Digital
Codec ID : A_AC3
Duration : 1 h 20 min
Bit rate mode : Constant
Bit rate : 640 kb/s
Channel(s) : 6 channels
Channel layout : L R C LFE Ls Rs
Sampling rate : 48.0 kHz
Frame rate : 31.250 FPS (1536 SPF)
Compression mode : Lossy
Stream size : 369 MiB (14%)
Language : Swedish
Service kind : Complete Main
Default : Yes
Forced : No
1080p with 5.1 Swedish audio and external English subtitles:
Like this post to see ed2k links  [2.61 Gb]
Like this post to see ed2k links  [45.4 Kb]
You do not have the required permissions to view the files attached to this post.
User avatar
Night457
Global Moderator
Posts: 6052
Likes:
Joined: Sat Dec 28, 2019 3:44 pm

Re: [REL] Lotta 2 - Lotta flyttar hemifrån (1993)

Post by Night457 »   5 likes

DIRECT DOWNLOAD LINKS

A BIG THANK YOU to the kind anonymous donor who provided the original file!

I call this the PAPA BEAR Version. It is

8.8Gb 1080p (by Ulozto's calculation)
with Swedish audio in DTS-HD 2.0, DTS 2.0, and AC3 5.1.
It has optional Swedish and Norwegian DVD subtitles.

The file plays beautifully on my computer but the high bitrate video and uncompressed audio track overwhelmed my poor blu-ray player. Make sure you know your own system capabilities if you choose to download it.

Specifications:
Spoiler:

Unique ID
: 180485193202823760215060635972593765519 (0x87C82F0E39374E0A8D4B6F32EE0BCC8F)
Complete name : Lotta.2.Lotta.Flyttar.Hemifran.1993.SWEDISH.DTS-HD.DTS.AC3.1080p.BluRay.x264.HQ-TUSAHD.mkv
Format : Matroska
Format version : Version 4
File size : 8.16 GiB
Duration : 1 h 37 min
Overall bit rate mode : Variable
Overall bit rate : 11.9 Mb/s
Movie name : Lotta.2.Lotta.Flyttar.Hemifran.1993.SWEDISH.DTS-HD.DTS.AC3.1080p.BluRay.x264.HQ-TUSAHD
Encoded date : UTC 2017-05-27 09:59:16
Writing application : mkvmerge v12.0.0 ('Trust / Lust') 64bit
Writing library : libebml v1.3.4 + libmatroska v1.4.5

Video
ID : 1
Format : AVC
Format/Info : Advanced Video Codec
Format profile : High@L4.1
Format settings : CABAC / 7 Ref Frames
Format settings, CABAC : Yes
Format settings, Reference frames : 7 frames
Codec ID : V_MPEG4/ISO/AVC
Duration : 1 h 37 min
Nominal bit rate : 10 000 kb/s
Width : 1 916 pixels
Height : 1 076 pixels
Display aspect ratio : 16:9
Frame rate mode : Constant
Frame rate : 25.000 FPS
Color space : YUV
Chroma subsampling : 4:2:0
Bit depth : 8 bits
Scan type : Progressive
Bits/(Pixel*Frame) : 0.194
Title : Lotta.2.Lotta.Flyttar.Hemifran.1993.SWEDISH.DTS-HD.DTS.AC3.1080p.BluRay.x264.HQ-TUSAHD
Writing library : x264 core 148 r2762 90a61ec
Encoding settings : cabac=1 / ref=7 / deblock=1:0:0 / analyse=0x3:0x133 / me=tesa / subme=7 / psy=1 / psy_rd=1.00:0.00 / mixed_ref=0 / me_range=16 / chroma_me=1 / trellis=2 / 8x8dct=1 / cqm=0 / deadzone=21,11 / fast_pskip=1 / chroma_qp_offset=-2 / threads=8 / lookahead_threads=4 / sliced_threads=0 / nr=0 / decimate=1 / interlaced=0 / bluray_compat=0 / constrained_intra=0 / bframes=10 / b_pyramid=0 / b_adapt=2 / b_bias=0 / direct=3 / weightb=1 / open_gop=0 / weightp=2 / keyint=250 / keyint_min=25 / scenecut=40 / intra_refresh=0 / rc_lookahead=60 / rc=2pass / mbtree=1 / bitrate=10000 / ratetol=1.0 / qcomp=0.60 / qpmin=0 / qpmax=69 / qpstep=4 / cplxblur=20.0 / qblur=0.5 / vbv_maxrate=62500 / vbv_bufsize=62500 / nal_hrd=none / filler=0 / ip_ratio=1.40 / aq=1:1.00
Language : Swedish
Default : Yes
Forced : No

Audio #1
ID : 2
Format : DTS XLL
Format/Info : Digital Theater Systems
Commercial name : DTS-HD Master Audio
Codec ID : A_DTS
Duration : 1 h 37 min
Bit rate mode : Variable
Channel(s) : 2 channels
Channel layout : L R
Sampling rate : 48.0 kHz
Frame rate : 93.750 FPS (512 SPF)
Bit depth : 16 bits
Compression mode : Lossless
Title : Swedish DTS-HD 2.0
Language : Swedish
Default : Yes
Forced : No

Audio #2
ID : 3
Format : DTS
Format/Info : Digital Theater Systems
Codec ID : A_DTS
Duration : 1 h 37 min
Bit rate mode : Constant
Bit rate : 1 509 kb/s
Channel(s) : 2 channels
Channel layout : L R
Sampling rate : 48.0 kHz
Frame rate : 93.750 FPS (512 SPF)
Bit depth : 24 bits
Compression mode : Lossy
Stream size : 1.03 GiB (13%)
Title : Swedish DTS 2.0
Language : Swedish
Default : No
Forced : No

Audio #3
ID : 4
Format : AC-3
Format/Info : Audio Coding 3
Commercial name : Dolby Digital
Codec ID : A_AC3
Duration : 1 h 37 min
Bit rate mode : Constant
Bit rate : 640 kb/s
Channel(s) : 6 channels
Channel layout : L R C LFE Ls Rs
Sampling rate : 48.0 kHz
Frame rate : 31.250 FPS (1536 SPF)
Compression mode : Lossy
Stream size : 448 MiB (5%)
Title : Swedish AC3 5.1
Language : Swedish
Service kind : Complete Main
Default : No
Forced : No

Text #1
ID : 5
Format : VobSub
Muxing mode : zlib
Codec ID : S_VOBSUB
Codec ID/Info : Picture based subtitle format used on DVDs
Title : Swedish
Language : Swedish
Default : Yes
Forced : No

Text #2
ID : 6
Format : VobSub
Muxing mode : zlib
Codec ID : S_VOBSUB
Codec ID/Info : Picture based subtitle format used on DVDs
Title : Norwegian
Language : Norwegian
Default : No
Forced : No

Menu
00:00:00.000 : en:00:00:00.000
00:06:46.080 : en:00:06:46.080
00:14:05.560 : en:00:14:05.560
00:21:06.520 : en:00:21:06.520
00:28:19.080 : en:00:28:19.080
00:34:40.000 : en:00:34:40.000
00:42:18.120 : en:00:42:18.120
00:50:18.920 : en:00:50:18.920
00:57:08.400 : en:00:57:08.400
01:04:21.440 : en:01:04:21.440
01:11:23.480 : en:01:11:23.480
01:18:57.000 : en:01:18:57.000
The actual movie runtime is 1:21:00, including closing credit end music.
The DTS soundtrack increases the apparent runtime to 1:37:55,
but it is only black screen after the credits and music.

Ulozto direct-download link:
https://ulozto.net/file/NGGgTTRZzPkt/lo ... DkEzH0Lt==

or, MEGA folder link:

Code: Select all

https://mega.nz/folder/vIRHCbqR#1-X4e8b0iwZGDC5toqhAzA
It is 8.16Gb, with 88 files of 100Mb each. MEGA is faster than Ulozto, but you should really use a downloader like Jdownloader2 to get 88 links. And they must be extracted to the full file.

or, all 88 files separately:

Code: Select all

https://mega.nz/file/GN5BTKTZ#Tc795XrG6oVltXrcuOaM-PRp9cHo3BlQ4Yqlguw-Myo
https://mega.nz/file/nAol3JRA#A5bJYt0O8AvfwKTlV0An9L5dTXPwc1B06BaGXQz3TBM
https://mega.nz/file/DcIFiRTS#jv-eHulX70IDGFX3-r8Zvjw0Bbh9r4EUZ19gvS5aTX0
https://mega.nz/file/LEQBnBIS#-PHyz3V9aoE1k1q-LBE_AIxKy_nvy6InE2nXgAZkQ-U
https://mega.nz/file/3Io0ED6D#797JnXPs6tMpkOsLpKc5EmGOx8pzM23-r08G0rkI484
https://mega.nz/file/rRozSAaA#kAKmeJkOkRhPH0DxDTBnWgSGyhOh8PdV3t9stB9JbWk
https://mega.nz/file/SBRiAKRS#b0stP7XhkqutxpDiOJ9hFf7Iep4JHNbqju-bdQiCNXo
https://mega.nz/file/XQY2kb5Z#-EJOzSVEsGH1DBk1TkVK_Un1Bk1PpqxdZI7hGiKdFWM
https://mega.nz/file/bJonQQAB#GuDPsTe2NZWTX-j2Un9NTp1GZ-t1BpRbedgScQQU160
https://mega.nz/file/Wc4SySYI#0spOAqLjBiW5YBZ8E-DvFw8ch5DyuuMiokbq1lpjg5A
https://mega.nz/file/ndoTADJB#3MsLDUtQLp4pV6UkFiZ5q6L4zG46RiDcSwTervLBLL4
https://mega.nz/file/uNxlmaqS#jjLxYvc73vNygqIzcurtIELN95AfgrFv0t0JgqLkPuQ
https://mega.nz/file/PU50HJiR#Ty5-2csms72vXaPTvXY-eA4fx6IMhchy2x3T4_JAml0
https://mega.nz/file/3dRzTTxJ#ji546pok2_XvYbBLtrR-9DeRxUqTHPL4oWKu-acF_TE
https://mega.nz/file/jEY22bAC#bDAGCWjLYb6-egUNNHDm33sUYJYmVURal8V3yVbJRzk
https://mega.nz/file/yAx2GABQ#53HJS1b7QtKFplLhYrJ_7GZK-8QaNy2zviO7K-peeqU
https://mega.nz/file/2FxwGaRZ#jUJEwakHHil8p4ADa12VRrIlUKMVvFdFJDuMV-wMChA
https://mega.nz/file/7AxUnJwT#ziOKkmYtDA_YmjY1QbLV7bJ3PoHdDHqI-aH0KKB58dw
https://mega.nz/file/6RQFlBoA#TqsrWeNY0ZHZoA5O1WKTMX5J6CWErzwxPD7FEa40UNw
https://mega.nz/file/bdpXHC6T#mnQaWABeook6qfU7EJ34tlQHvja6MbvHU_1qWICs1mE
https://mega.nz/file/zR5RTYhR#ebeuPKjSM2mjcMrVtM0WIlOdXftAE2xkkPiPw1oqCws
https://mega.nz/file/aZI0SDJJ#6tDKWnUZHw4303cXBxU0t8mIS85RbJLtSwO1yRtBtDQ
https://mega.nz/file/vQZCVCLb#0a321bqCwowtUMIU974GRZXi69spG5DzXLk7_P8j-Xw
https://mega.nz/file/rJABXDTY#FwL_Pugbk8W7pKc-OnVbkDYFAmAUjqFc76bNBrPdaOE
https://mega.nz/file/vB5TQbTb#ODkQihqEU6W9droTDmqjxoNxSnbt5fCjENoiN1_4uug
https://mega.nz/file/6EwSjLDD#QKMoEqO8EwW98NllNp1WhiTKFqpK5N46dmg3P8nAc54
https://mega.nz/file/2UQwFKaA#CGzVOy3ZHLdEn7kKFKDGzZXj92k6HIzx8jPM3MREMqk
https://mega.nz/file/7ZxChJqb#gZN0bPe_GFE_z77Ci7JD-0IaAFfZtugKUFkysfQOhB0
https://mega.nz/file/adJhiCSC#xJ097GI52yHkh9bDsJFTYJb3hAjp729L-tidEqeKY9I
https://mega.nz/file/XQAxGIqa#9wZkziYjxlH8zNHn9W1rzvvc--1Z7s92SpOnz-PDx5g
https://mega.nz/file/Gdxn1bTY#QvouXT9y7x8xq-p7MQfrB_joq8yg8Jl0DIzNkJQNHmQ
https://mega.nz/file/mEQHUQjb#MQgC79QRytTgEhpGyIjlD8bNjsvMo_WCtNYGvfiSEQw
https://mega.nz/file/Wc4hSRJD#pML7KjhNs6kbwqjUUWoPuClHlodYMLo80q3vlT478UM
https://mega.nz/file/3Eh0BAxI#aRVharlwuoKGCCQqaFwFGXPll5XoLMLlSIxQRUMCXzU
https://mega.nz/file/CYI1QKjZ#iV1IkJJnUWoKele_BQa49UGx8SaafF_KCsWhjubLDNs
https://mega.nz/file/nFpiGbgI#Nd1D2UQ1GaMfpAD-QgnTSGR50VZcB-0B_eDsY9_k0jM
https://mega.nz/file/rFA0RBwC#uYFxeyg4hIzPkQ3mO8wWi-OWunfdNIsGbvORH4VANrE
https://mega.nz/file/vY5QhZBJ#l-0dsrbtRdATBTy2zlxvSMkxDIPDxOX9Op-LbYV7v4g
https://mega.nz/file/CIwnCYBC#POwqm_Aj-2RxwJ2Q0iormUB7R0fnpn9y6beUDpyu7ZY
https://mega.nz/file/HIwBCJrA#2rTeTDklmK_dwkxWVH4LKDDB6d7getzBcvleGiUALz8
https://mega.nz/file/nVg3xZ6A#xrK2KglRQeLCkheD6jca57gOsZ16xYa4egNNF3aqp9k
https://mega.nz/file/WVQSkKoK#Fhm-_4VkwnsllFmo4A_ycE_yMS_pTd1VLdCViOSzP9U
https://mega.nz/file/aYYyARTY#q-qNej7S4r-GCDaNV9VoGJiRWYqCBJLLrqoPzKq4IKA
https://mega.nz/file/3YAAyYYA#VZtBZoqrjhwmAx9fzC493OVUXRMisWeQNE3FIYgJM5I
https://mega.nz/file/TRZWlQ5Y#qzr2sRwYpaDrRYiki0T64T5AcHxbZGsEJ9_03kn9qNs
https://mega.nz/file/WcZBySwL#ZZxrIhv-VDghQPn3rxjCqaciWYi_DcEmAwHouQKa7rg
https://mega.nz/file/fIQX1bqL#8VXhHcnteojOWWmDqq6kloJ58jeeP7wLIk6WLIE9SWA
https://mega.nz/file/qEpDQZxZ#gyb-KXrtwQV98Z6dJKAoZ_07OPKyZuoP0k1R-drCIKg
https://mega.nz/file/fVIynABY#rBpquy0nXSKr-NPhfgkXD9P14hVFonyw7FsOcu83s18
https://mega.nz/file/yMBDwIyR#IXv77P5If7buVdeWSXUEXvpkH3mzNEDJ_QHrEEMP5wE
https://mega.nz/file/GUwRRIia#mdSz15BRcD5RDDb3KADj8wQm90pyHqZjbrUu3Bz4LCk
https://mega.nz/file/bMpzzDCC#ajH6Ay061jCnL0KsfvgwZNSFqL0BZEuj5n0gdNp8eqY
https://mega.nz/file/qIZX0KBa#9hlTRtAfme3DZ1NdHgl3yQRVX7yMZSoZn54zrgnuiUE
https://mega.nz/file/uZ5CFaQB#6q32mdAztEXe4ghtfYhnjgI1z4uSb-d2jvcIBPI6gDg
https://mega.nz/file/TEhHRDRT#eUZa5nW4h29-8toVQfQZbG3cNX2IY5EV_YXJSjwlFM8
https://mega.nz/file/rQQzhKxC#UPXutLQuRf4bm3wohJcCdEfDrX5-fjcdlM02ZHS7Kq4
https://mega.nz/file/GdRTXbIZ#o3qhha9YktczpRJLL90ws_ribjX2VhCYe3b8n0Mfl1k
https://mega.nz/file/2FhSHRBB#g8-xLc9SKSaGDiqV3kCuZi6wz8EU_PKpfTxYlHdh3RQ
https://mega.nz/file/ichEQJYZ#Fx4qscdUNER2p7ejvkkOotj_DJOEjbGhkpKEuT_EIQM
https://mega.nz/file/3YAQUZwI#ael2hIpPR_1dARCstvZh5q47CNRGYBtUNUguV-eRqzw
https://mega.nz/file/uUJ0HYrC#DAFJbbybXQkSTAZ1qJOHNXS4nu3ErBpSIpF5HtBinZo
https://mega.nz/file/aUIWFDKb#jbqWanJsWbfXskoSk38yz9UzCki1R3tXyd9737LccWI
https://mega.nz/file/DEhSDAJJ#Dlbiu8LYmdYJcqmjP6C8qQi_m3R4Iq1jCAOcJmjZ6HE
https://mega.nz/file/jEhhWbCL#tlc6P_BUOSQh_KIuTfGEFO72V7fdqDM4xItzzjsuXuY
https://mega.nz/file/KcYG2a7A#UaxZO46Zb0mtN-P6Da26_M3lhDXoQScAy-B9ThoARFI
https://mega.nz/file/rRBhSKZS#HMbHf9yWu9wBIgIpe2QJSm1qVRC-SGknvsxGcknmpbE
https://mega.nz/file/fZZCyDIZ#VKMwRfpuKgw_bYvLc6NMM__j_x91AM3bwTlgneTEj_Q
https://mega.nz/file/KFByUDrZ#2exvADQw0RCmtL3fILNBgjfBqNo9OCYQTc7Q_4V-Rxw
https://mega.nz/file/OcoX3IYD#ksCV1MqPpZwEy5vskkzVVHVj1juj-r4uBD_IAJ1YVB4
https://mega.nz/file/3cQwkTbA#01YBhNlhwo6mPJMVnGtYdMO_2qCLnOdAL5iwY_Yyzek
https://mega.nz/file/uYoxQQwS#Y_7LQUU9P6d27zfh6mMMf4D8ZYbD19iJqDj6llftu7E
https://mega.nz/file/WUpjCQiS#YaaMPjPLsfYnCBx1Iaw5Ri31pm2WBHRjSTgNXvjBUfk
https://mega.nz/file/eNoBUJ7S#-zwai0AAKd8GER0OykyXTusIpTGYIrswBaTNb8H0oY0
https://mega.nz/file/KcByUaAB#4fPDyM20jLBJTItV1QC5X2ybPOC11fFz9njnKOZUfz8
https://mega.nz/file/vBwh0aoC#bSeLP03OG_IOWJUQoI6lFbJDnBdpzfotRq2-JmiJZBA
https://mega.nz/file/7E4HQBxA#c2wVNS-8xBfIjdORkz1Z1zS_UkuNjA1wekwJBtJMrxU
https://mega.nz/file/fE4mTbgK#07IhCtAsuifI1fkLbn12dK43FydzqfPbI9VYz3hh2Ds
https://mega.nz/file/WYZVkCZB#SG0jWTxVnjD5a8Fhq-OqfAOyjqgookloeIt-eut0qzU
https://mega.nz/file/iIJ1Vb5B#jCfD9PjtYjWRpPfqaFargu578-XvT40P2fuPabc85VI
https://mega.nz/file/aI5XhSiQ#FYxO-sx0jqYD0iiBj-_65AfUhpkrRT78Z3lLEtVRX1U
https://mega.nz/file/7AowURqA#pwXZVwXjLjOrI87iaPSFPwEimDtWMnVHnAUIk3Au1_0
https://mega.nz/file/jcRxxJoI#a7-nXNbYL-ImrJSxNV8ctIfBIY4SM1UUmiAHvf8_g28
https://mega.nz/file/XAYRkIJI#pH--ietFK_THnabJ0gH2Rt18_bomSu_xGyfb8PUz-oE
https://mega.nz/file/zUwFGYiA#Pt960ggE8ga5onbumdZ_AzziKMrzi5bSMxnCQbjiVQc
https://mega.nz/file/OMonhQJY#_gYjOjUTsc8H3hiz5tB9TJs3NWpgoMDrTGiS-dEJzc8
https://mega.nz/file/qQ4hkbSD#I0kl26Hx-I7-y8oGXIW_U7JK3OaSJ2kPK9ouaHChWF0
https://mega.nz/file/CR4xXCYI#9r3hSomjydlQn0G_ID6kluXLvmNv1L39qx5uXtE4IR4
https://mega.nz/file/WcQnGThR#mOBmUXNnogvacc_T7SqQe8M3YQ_cXzOMOhZ4BfjhbMs

Next, the MAMA BEAR Version. It is

3.7Gb 1080p with Swedish audio in DTS 2.0 and AC3 5.1.
It has optional Swedish and Norwegian DVD subtitles.
I left out the uncompressed HD-MA DTS track and re-encoded the video to a smaller size, still high quality.

Specifications:
Spoiler:

Unique ID :
246404749072481469350180307769137041659 (0xB95FD41677164CB4B8537137A88010FB)
Complete name : Lotta.2.Lotta.Flyttar.Hemifran.1993.SWEDISH.DTS.AC3.1080p.BluRay.x264.mkv
Format : Matroska
Format version : Version 2
File size : 3.47 GiB
Duration : 1 h 21 min
Overall bit rate : 6 126 kb/s
Movie name : Lotta.2.Lotta.Flyttar.Hemifran.1993.SWEDISH.DTS-HD.DTS.AC3.1080p.BluRay.x264.HQ-TUSAHD
Encoded date : UTC 2023-02-18 04:37:24
Writing application : mkvmerge v5.3.0 ('I could have danced') built on Feb 9 2012 10:38:07
Writing library : libebml v1.2.3 + libmatroska v1.3.0

Video
ID : 1
Format : AVC
Format/Info : Advanced Video Codec
Format profile : High@L4
Format settings : CABAC / 4 Ref Frames
Format settings, CABAC : Yes
Format settings, Reference frames : 4 frames
Muxing mode : Header stripping
Codec ID : V_MPEG4/ISO/AVC
Duration : 1 h 21 min
Bit rate : 4 000 kb/s
Width : 1 916 pixels
Height : 1 076 pixels
Display aspect ratio : 16:9
Frame rate mode : Constant
Frame rate : 25.000 FPS
Color space : YUV
Chroma subsampling : 4:2:0
Bit depth : 8 bits
Scan type : Progressive
Bits/(Pixel*Frame) : 0.078
Stream size : 2.18 GiB (63%)
Writing library : x264 core 152 r2854 e9a5903
Encoding settings : cabac=1 / ref=3 / deblock=1:0:0 / analyse=0x3:0x133 / me=hex / subme=7 / psy=1 / psy_rd=1.00:0.00 / mixed_ref=1 / me_range=16 / chroma_me=1 / trellis=1 / 8x8dct=1 / cqm=0 / deadzone=21,11 / fast_pskip=1 / chroma_qp_offset=-2 / threads=6 / lookahead_threads=1 / sliced_threads=0 / nr=0 / decimate=1 / interlaced=0 / bluray_compat=0 / constrained_intra=0 / bframes=3 / b_pyramid=2 / b_adapt=1 / b_bias=0 / direct=1 / weightb=1 / open_gop=0 / weightp=2 / keyint=250 / keyint_min=25 / scenecut=40 / intra_refresh=0 / rc_lookahead=40 / rc=2pass / mbtree=1 / bitrate=4000 / ratetol=1.0 / qcomp=0.60 / qpmin=10 / qpmax=51 / qpstep=4 / cplxblur=20.0 / qblur=0.5 / ip_ratio=1.40 / aq=1:1.00
Default : Yes
Forced : No

Audio #1
ID : 2
Format : DTS
Format/Info : Digital Theater Systems
Muxing mode : Header stripping
Codec ID : A_DTS
Duration : 1 h 21 min
Bit rate mode : Constant
Bit rate : 1 509 kb/s
Channel(s) : 2 channels
Channel layout : L R
Sampling rate : 48.0 kHz
Frame rate : 93.750 FPS (512 SPF)
Bit depth : 24 bits
Compression mode : Lossy
Delay relative to video : -80 ms
Stream size : 874 MiB (25%)
Title : Swedish DTS 2.0
Language : Swedish
Default : No
Forced : No

Audio #2
ID : 3
Format : AC-3
Format/Info : Audio Coding 3
Commercial name : Dolby Digital
Muxing mode : Header stripping
Codec ID : A_AC3
Duration : 1 h 21 min
Bit rate mode : Constant
Bit rate : 640 kb/s
Channel(s) : 6 channels
Channel layout : L R C LFE Ls Rs
Sampling rate : 48.0 kHz
Frame rate : 31.250 FPS (1536 SPF)
Compression mode : Lossy
Stream size : 371 MiB (10%)
Title : Swedish AC3 5.1
Language : Swedish
Service kind : Complete Main
Default : No
Forced : No

Text #1
ID : 4
Format : VobSub
Muxing mode : zlib
Codec ID : S_VOBSUB
Codec ID/Info : Picture based subtitle format used on DVDs
Title : Swedish
Language : Swedish
Default : No
Forced : No

Text #2
ID : 5
Format : VobSub
Muxing mode : zlib
Codec ID : S_VOBSUB
Codec ID/Info : Picture based subtitle format used on DVDs
Title : Norwegian
Language : Norwegian
Default : No
Forced : No

Menu
00:00:00.000 : en:00:00:00.000
00:06:46.080 : en:00:06:46.080
00:14:05.560 : en:00:14:05.560
00:21:06.520 : en:00:21:06.520
00:28:19.080 : en:00:28:19.080
00:34:40.000 : en:00:34:40.000
00:42:18.120 : en:00:42:18.120
00:50:18.920 : en:00:50:18.920
00:57:08.400 : en:00:57:08.400
01:04:21.440 : en:01:04:21.440
01:11:23.480 : en:01:11:23.480
01:18:57.000 : en:01:18:57.000
Ulozto direct-download link:
https://ulozto.net/file/2dOo4yMJs35U/lo ... EPnTHjBN==

The file is shorter because it does not have the overlong DTS audio track padding out the runtime.
It is NOT missing any footage! The same is true of the smallest version.

Finally, the BABY BAMSE Version. It is

2.8Gb 1080p with Swedish audio in AC3 5.1.
I left out both the large DTS tracks and used the same re-encoded smaller video as the 3.7Gb version. I also left out the Swedish and Norwegian DVD subtitles.
This is what I shared on eMule in the previous post.

Ulozto direct-download link:
https://ulozto.net/file/KfXR3OBRKY1K/lo ... 4lAzEyAt==

and

English, English SDH, and Swedish SDH SRT subtitles.
Rename them as needed for whatever file you get:
You do not have the required permissions to view the files attached to this post.
User avatar
pillowbaker
Posts: 2448
Likes:
Joined: Mon Mar 07, 2022 4:05 am

Re: [REL] Lotta 2 - Lotta flyttar hemifrån (1993)

Post by pillowbaker »   0 likes

Most triumphant! :shock: :mrgreen: :mrgreen: Exultant joy! And gleeful thanks to your donor!

Wow Night, many thanks for the extra versions and the direct links for those that need them! I knew you were looking for these. (Coincidentally, I am have been having computer troubles and temporarily cannot use emule, so write me down for the mega links-- I'll help source of emule soon, if needed.)

Curious, on imdb, it says this was edited into a tv series. I understand sort of thing often happens with Lindgren series and movies, but here the difference I think I am seeing is they edited the film into a series. Is this actually the case? Is there one that contains more footage than the other?
User avatar
Night457
Global Moderator
Posts: 6052
Likes:
Joined: Sat Dec 28, 2019 3:44 pm

Re: [REL] Lotta 2 - Lotta flyttar hemifrån (1993)

Post by Night457 »   0 likes

pillowbaker wrote: Thu Feb 23, 2023 4:42 amwrite me down for the mega links
Don't worry, you don't need a reservation. In case anyone is wondering, my MEGA links are as "permanent" as MEGA will allow them to be. I won't take anything down unless it turns out there is a problem with a file. I move on to the next free account when I need to.
Is this actually the case? Is there one that contains more footage than the other?
I read the same thing you did and do not have any more information as far as "Lotta" is concerned. I have looked for the series and the movies on svtplay and found nothing. There is another member here who knows more about Lindgren films than I do, so maybe he can tell us more. At the very least I hope this thread gives him the opportunity to get this one in 1080p.
c4po
Posts: 63
Likes:
Joined: Mon Apr 06, 2020 11:42 pm

Re: [REL] Lotta 2 - Lotta flyttar hemifrån (1993)

Post by c4po »   1 likes

There's now a torrent with 720p or 1080p on yts:

https://yts.mx/movies/lotta-2-lotta-fly ... ifran-1993

I've downloaded the 1080p with a file size of 1.3GB. The Quality is pretty good. The audio is Swedish. Subtitles are not included, but the ones Night attached above seem to work great.
Lotta.2.-.Lotta.Flyttar.Hemifran.1993.SWEDISH.DTS-HD.DTS.AC3.1080p.BluRay.x264.AAC-[YTS.MX]_preview.jpg
You do not have the required permissions to view the files attached to this post.
Post Reply