[REL] F.O.U. Förortsungar (2006)

Rich
Posts: 2821
Likes:
Joined: Sat Feb 21, 2004 1:00 am

[REL] F.O.U. Förortsungar (2006)

Post by Rich »   9 likes

Förortsungar 2006

[Image]

[Image]

http://imdb.com/title/tt0882771/

1 source, needs help sharing on topic or not...

Like this post to see ed2k links  [699.84 Mb]
User avatar
Phuzzy4242
Site Admin
Posts: 7686
Likes:
Joined: Sun Aug 23, 2009 1:00 am

Re: Förortsungar 2006

Post by Phuzzy4242 »   1 likes

F.O.U. Förortsungar (2006) Sweden
aka Kids Rule This Hood

http://www.rarefilmfinder.com/showfilm.php?id=19059
http://www.bio.nu/film/?id=101164
GoogleTrans and bio.nu wrote:We meet a refugee child Amina, a suburban kid. The prologue is promising with a sharp rapper on a höghustak. And there beneath the roof of the concrete jungle is collected suburban kids. Newcomer Amina gives skeptical glances at him but soon finds a friend in the wild Mirror. Amina has no residence and lives with her grandfather. When he dies, she is all alone. Only the hard-rocking Johan (Gustav Skarsgård) can help her. But can he adopt her? He is pierced, single and drinking beer. But only sometimes.
This looks like it's on-topic. Rich's link appears dead. Who'd like to find a source for this film?
User avatar
yoko
Posts: 648
Likes:
Joined: Sat Aug 27, 2011 3:40 am

Re: F.O.U. Förortsungar (2006) Sweden

Post by yoko »   1 likes

Rich's link never completed.
User avatar
starfish21
Posts: 3376
Likes:
Joined: Tue May 23, 2006 1:00 am

Re: F.O.U. Förortsungar (2006) Sweden

Post by starfish21 »   15 likes

http://www.youtube.com/watch?v=3y1i9rCLNLo

General
Complete name Förortsungar.2006.SWEDISH.AC3.DVDRip.XviD-aka.avi
Format : AVI
Format/Info : Audio Video Interleave
File size : 1.37 GiB
Duration : 1h 32mn
Overall bit rate : 2 127 Kbps
Writing application : FairUse Wizard - http://fairusewizard.com
Writing library : The best and REALLY easy backup tool

Video
ID : 0
Format : MPEG-4 Visual
Format profile : Advanced Simple@L5
Format settings, BVOP : 1
Format settings, QPel : No
Format settings, GMC : No warppoints
Format settings, Matrix : Default (MPEG)
Muxing mode : Packed bitstream
Codec ID : XVID
Codec ID/Hint : XviD
Duration : 1h 32mn
Bit rate : 1 670 Kbps
Width : 688 pixels
Height : 368 pixels
Display aspect ratio : 1.870
Frame rate : 25.000 fps
Color space : YUV
Chroma subsampling : 4:2:0
Bit depth : 8 bits
Scan type : Progressive
Compression mode : Lossy
Bits/(Pixel*Frame) : 0.264
Stream size : 1.07 GiB (78%)
Writing library : XviD 1.2.0.dev47 (UTC 2006-11-01)

Audio
ID : 1
Format : AC-3
Format/Info : Audio Coding 3
Mode extension : CM (complete main)
Codec ID : 2000
Duration : 1h 32mn
Bit rate mode : Constant
Bit rate : 448 Kbps
Channel(s) : 6 channels
Channel positions : Front: L C R, Side: L R, LFE
Sampling rate : 48.0 KHz
Bit depth : 16 bits
Compression mode : Lossy
Stream size : 295 MiB (21%)
Alignment : Split accross interleaves
Interleave, duration : 40 ms (1.00 video frame)
Interleave, preload duration : 500 ms


[Image] [Image] [Image]

[Image] [Image] [Image]

[Image] [Image] [Image]

[Image] [Image] [Image]

[Image] [Image] [Image]

[Image]
i couldn't find subs for this.
Like this post to see ed2k links  [1.37 Gb]
User avatar
ptguardian
Posts: 4479
Likes:
Joined: Wed Sep 17, 2008 1:00 am

Re: [REL] F.O.U. Förortsungar (2006)

Post by ptguardian »   0 likes

Thanks Starfish :cool

From the trailer it looks like it is a heavily audio driven movie and the file you posted the audio looks to be very high bitrate for a dvdrip. :icon_thumbup1

One of those crank it up and enjoy movies. Grabbing now.


Looks like to get a part in this the girls weren't allowed to use a brush,
katzenjammer
Posts: 621
Likes:
Joined: Mon Sep 01, 2008 1:00 am

Re: [REL] F.O.U. Förortsungar (2006)

Post by katzenjammer »   1 likes

This movie is also posted to TPB. I'm fairly sure i ripped it myself long time ago. I'll check if i find any subs residing in an dark nook of my drives.
Post Reply