[REL] Alla vi barn i Bullerbyn (1986)

FLL
Posts: 2191
Likes:
Joined: Mon Aug 28, 2006 1:00 am

[REL] Alla vi barn i Bullerbyn (1986)

Post by FLL »   34 likes

Alla vi barn i Bullerbyn (1986) aka The Children of Noisy Village

http://www.imdb.com/title/tt0090610/
http://www.rarefilmfinder.com/showfilm.php?id=73

[Image]

This was posted here ages ago but was destroyed by database problems.

IMDB comment:
This film is an adaptation of one of Astrid Lindgren's more low key books. Lindgren is most famous for writing the fantastic tales of Pippi Longstocking. Alla Vi Barn in Bullerbyn, however, represents the author's lower key style that is more grounded in reality.

Bullerbyn is translated as Noisy Village, which is sort of a joke, because Bullerbyn is just about as small and quiet a village as you can have. Living in the village are only three families. The film follows the innocent exploits of the six children of this village as they pass away the days of their summer vacation.

Since the film was simultaneously filmed to be a TV series, the plot is very episodic. For the 90 minutes of the film we watch the six children go from one low key episode to another. What makes the film special is how each scene is such a well crafted observation of what kinds of things children wind up doing when left alone to their own devices. Much of the humor is centered around the fact that there are three boys and three girls. Since they are all under 10 the play is very innocent. But there is nevertheless a lot of gentle teasing that goes back and forth between the sexes.
This DVDRip is anamorphic which is why the caps look squeezed, but the film looks fine in VLC and MPC.

[Image][Image][Image]
[Image][Image][Image]
[Image][Image][Image]


DVDRip, Swedish audio.

Like this post to see ed2k links  [1.42 Gb]
Like this post to see ed2k links  [55.2 Kb]

Subs were found at http://www.opensubtitles.org/en/search/ ... ovie-60868 and they match this rip.

File Name .......: Alla vi barn i Bullerbyn (1986) (The Children of Noisy Village).avi
File Size .......: 1,457.13 MB
Duration ........: 01:26:43

Video Codec .....: XviD MPEG-4 codec
Video Bitrate ...: 2207 KB/s
Resolution ......: 720 x 576
Aspect Ratio ....: 1.25:1 (displays as 16/9)
Framerate .......: 25 FPS

Audio Codec .....: MPEG-1 Layer 3 (MP3)
Audio Bitrate ...: 141 KB/s (VBR)
Channels ........: 2 Ch


If anyone has a confirmed link for a 1CD size non-anamorphic DVDRip feel free to post.
User avatar
ARTHORIUS
Posts: 3718
Likes:
Joined: Sun Mar 26, 2006 1:00 am

Re: [REL] Alla vi barn i Bullerbyn (1986)

Post by ARTHORIUS »   0 likes

1st to reply after the lost file crash tyvm :icon_1dancingban
User avatar
ghost
Site Admin
Posts: 8922
Likes:
Joined: Sun Mar 07, 2004 1:00 am

Re: [REL] Alla vi barn i Bullerbyn (1986)

Post by ghost »   0 likes

It really hasn't been posted before? :think
FLL
Posts: 2191
Likes:
Joined: Mon Aug 28, 2006 1:00 am

Re: [REL] Alla vi barn i Bullerbyn (1986)

Post by FLL »   7 likes

ghost wrote:It really hasn't been posted before? :think
Surprised me too. All I could find was a REQ, obviously the remnants of a longer thread. Beware, I don't see any sources for this file.
Anonymous wrote:The real one (verified):

Like this post to see ed2k links  [572.54 Mb]

DVD-RIP

(Should be the one from WoRkZ, so thanks to him!)
User avatar
ptguardian
Posts: 4479
Likes:
Joined: Wed Sep 17, 2008 1:00 am

Re: [REL] Alla vi barn i Bullerbyn (1986)

Post by ptguardian »   0 likes

FLL wrote: Beware, I don't see any sources for this file.
I have the Astrid Lindgren super pack. https://www.first-loves.net/forums/v ... php?t=3922 and would be willing to do a 1cd xvid if needed and or wanted. :)
User avatar
vidman49
Posts: 398
Likes:
Joined: Sat Feb 05, 2011 1:00 am

Re: [REL] Alla vi barn i Bullerbyn (1986)

Post by vidman49 »   0 likes

I had this movie for a while but was waiting for subtitles before viewing it. Glad I waited as my copy was from a vhs tape. This DVD rip was much better quality.

Thanks FLL. Great movie. :thumbsup If I can find a DVD with English subtitles, it will be another one I have to buy.

After all the commotion over the weekend - I am almost afraid to make a post just to thank someone.
User avatar
ghost
Site Admin
Posts: 8922
Likes:
Joined: Sun Mar 07, 2004 1:00 am

Re: [REL] Alla vi barn i Bullerbyn (1986)

Post by ghost »   2 likes

User avatar
Night457
Global Moderator
Posts: 5880
Likes:
Joined: Sat Dec 28, 2019 3:44 pm

Re: [REL] Alla vi barn i Bullerbyn (1986)

Post by Night457 »   30 likes

1080p upgrade, but not huge!
vlcsnap-2023-05-02-12h45m32s692.jpg
vlcsnap-2023-05-02-12h46m20s601.jpg
vlcsnap-2023-05-02-12h46m44s934.jpg
vlcsnap-2023-05-02-12h47m16s409.jpg
vlcsnap-2023-05-02-12h47m58s399.jpg
vlcsnap-2023-05-02-12h48m16s223.jpg
vlcsnap-2023-05-02-12h48m26s656.jpg
vlcsnap-2023-05-02-12h49m44s394.jpg
vlcsnap-2023-05-02-12h50m14s982.jpg
vlcsnap-2023-05-02-12h51m32s335.jpg
Full specifications:
Spoiler:

Unique ID
: 239354816669093316515968760489735688881 (0xB4120F958BA23FAF8F23161EAFCD12B1)
Complete name
: Alla vi Barn i Bullerbyn (1986).H264-1080p.AC3-5.1.mkv
Format : Matroska
Format version : Version 2
File size : 3.26 GiB
Duration : 1 h 30 min
Overall bit rate : 5 141 kb/s
Encoded date : UTC 2021-09-30 04:02:35
Writing application : mkvmerge v5.3.0 ('I could have danced') built on Feb 9 2012 10:38:07
Writing library : libebml v1.2.3 + libmatroska v1.3.0

Video
ID : 1
Format : AVC
Format/Info : Advanced Video Codec
Format profile : High@L4.1
Format settings : CABAC / 3 Ref Frames
Format settings, CABAC : Yes
Format settings, Reference frames : 3 frames
Muxing mode : Header stripping
Codec ID : V_MPEG4/ISO/AVC
Duration : 1 h 30 min
Bit rate : 4 500 kb/s
Width : 1 920 pixels
Height : 1 080 pixels
Display aspect ratio : 16:9
Frame rate mode : Constant
Frame rate : 24.000 FPS
Color space : YUV
Chroma subsampling : 4:2:0
Bit depth : 8 bits
Scan type : Progressive
Bits/(Pixel*Frame) : 0.090
Stream size : 2.79 GiB (86%)
Writing library : x264 core 148
Encoding settings : cabac=1 / ref=3 / deblock=1:-1:-1 / analyse=0x3:0 / me=hex / subme=5 / psy=1 / psy_rd=1.00:0.00 / mixed_ref=0 / me_range=16 / chroma_me=1 / trellis=1 / 8x8dct=1 / cqm=0 / deadzone=21,11 / fast_pskip=0 / chroma_qp_offset=0 / threads=4 / lookahead_threads=1 / sliced_threads=0 / nr=0 / decimate=1 / interlaced=0 / bluray_compat=0 / constrained_intra=0 / bframes=2 / b_pyramid=0 / b_adapt=1 / b_bias=0 / direct=1 / weightb=0 / open_gop=0 / weightp=0 / keyint=24 / keyint_min=2 / scenecut=40 / intra_refresh=0 / rc=2pass / mbtree=0 / bitrate=4500 / ratetol=1.0 / qcomp=0.60 / qpmin=0 / qpmax=69 / qpstep=4 / cplxblur=20.0 / qblur=0.5 / ip_ratio=1.40 / pb_ratio=1.30 / aq=1:1.00
Default : Yes
Forced : No
Color range : Limited
Color primaries : BT.709
Transfer characteristics : BT.709
Matrix coefficients : BT.709

Audio
ID : 2
Format : AC-3
Format/Info : Audio Coding 3
Commercial name : Dolby Digital
Muxing mode : Header stripping
Codec ID : A_AC3
Duration : 1 h 30 min
Bit rate mode : Constant
Bit rate : 640 kb/s
Channel(s) : 6 channels
Channel layout : L R C LFE Ls Rs
Sampling rate : 48.0 kHz
Frame rate : 31.250 FPS (1536 SPF)
Compression mode : Lossy
Stream size : 415 MiB (12%)
Language : Swedish
Service kind : Complete Main
Default : No
Forced : No
1080p with Swedish 5.1 audio and optional English subtitles:
Like this post to see ed2k links  [3.26 Gb]
Like this post to see ed2k links  [54.9 Kb]
You do not have the required permissions to view the files attached to this post.
User avatar
pillowbaker
Posts: 2359
Likes:
Joined: Mon Mar 07, 2022 4:05 am

Re: [REL] Alla vi barn i Bullerbyn (1986)

Post by pillowbaker »   0 likes

Hey thanks for these Bullerbyn upgrages, Night. That 10gb uloz link ghost posted is tempting, too.
Post Reply