[REL] In America (2002)

Rich
Posts: 2821
Likes:
Joined: Sat Feb 21, 2004 1:00 am

[REL] In America (2002)

Post by Rich »   5 likes

Guest

Re: [REL] In America (2002)

Post by Guest »   6 likes

Debaser

Re: [REL] In America (2002)

Post by Debaser »   0 likes

This is on CH4 right now, and its really good!!
Debaser

Re: [REL] In America (2002)

Post by Debaser »   0 likes

and now just to confirm, the film was excellent.
Very moving!

and talking of moving, im moving this release from the US to the UK section.
User avatar
relic
Posts: 84
Likes:
Joined: Tue Nov 01, 2016 7:38 am

Re: [REL] In America (2002)

Post by relic »   0 likes

I am posting just to bump this title, BK has a different movie starring Sarah Bolger that reminded me about this movie.
I don't see much evidence of it being downloaded, likes or thanks, and I wouldn't want you to miss it.

Relic
User avatar
ghost
Site Admin
Posts: 6568
Likes:
Joined: Sun Mar 07, 2004 1:00 am

Re: [REL] In America (2002)

Post by ghost »   19 likes

Thanks for brining this movie back to my mind!

Here's an upgrade to Full HD. English and german audio:

[Image]
Spoiler:

General
Complete name : In America (2002).1080p.5.1.ger-eng.mkv
Format : Matroska
Format version : Version 4
File size : 3.40 GiB
Duration : 1 h 41 min
Overall bit rate mode : Variable
Overall bit rate : 4 822 kb/s
Encoded date : UTC 2019-11-19 10:41:54
Writing application : mkvmerge v40.0.0 ('Old Town Road + Pony') 64-bit
Writing library : libebml v1.3.9 + libmatroska v1.5.2

Video
ID : 1
Format : AVC
Format/Info : Advanced Video Codec
Format profile : Main@L4.1
Format settings : CABAC / 2 Ref Frames
Format settings, CABAC : Yes
Format settings, Reference : 2 frames
Format settings, GOP : M=3, N=25
Codec ID : V_MPEG4/ISO/AVC
Duration : 1 h 41 min
Bit rate mode : Variable
Bit rate : 3 988 kb/s
Maximum bit rate : 14.0 Mb/s
Width : 1 920 pixels
Height : 1 080 pixels
Display aspect ratio : 16:9
Frame rate mode : Constant
Frame rate : 25.000 FPS
Color space : YUV
Chroma subsampling : 4:2:0
Bit depth : 8 bits
Scan type : Progressive
Bits/(Pixel*Frame) : 0.077
Stream size : 2.82 GiB (83%)
Default : Yes
Forced : No

Audio #1
ID : 2
Format : AC-3
Format/Info : Audio Coding 3
Commercial name : Dolby Digital
Codec ID : A_AC3
Duration : 1 h 41 min
Bit rate mode : Constant
Bit rate : 384 kb/s
Channel(s) : 6 channels
Channel layout : L R C LFE Ls Rs
Sampling rate : 48.0 kHz
Frame rate : 31.250 FPS (1536 SPF)
Compression mode : Lossy
Stream size : 278 MiB (8%)
Language : German
Service kind : Complete Main
Default : Yes
Forced : No

Audio #2
ID : 3
Format : AC-3
Format/Info : Audio Coding 3
Commercial name : Dolby Digital
Codec ID : A_AC3
Duration : 1 h 41 min
Bit rate mode : Constant
Bit rate : 448 kb/s
Channel(s) : 6 channels
Channel layout : L R C LFE Ls Rs
Sampling rate : 48.0 kHz
Frame rate : 31.250 FPS (1536 SPF)
Compression mode : Lossy
Stream size : 324 MiB (9%)
Language : English
Service kind : Complete Main
Default : No
Forced : No
Like this post to see ed2k links  [3.40 Gb]
User avatar
popdrome
Global Moderator
Posts: 2241
Likes:
Joined: Sat Mar 25, 2006 1:00 am

Re: [REL] In America (2002)

Post by popdrome »   0 likes

Haha that's brilliant, ghost :thumbsup

Don't go quietly into the night.
User avatar
Sully23
Posts: 1010
Likes:
Joined: Wed May 10, 2017 7:41 pm

Re: [REL] In America (2002)

Post by Sully23 »   0 likes

I always wondered about the mysterious African American man, I'll have to see her again
Post Reply