[REL] The Secret of Roan Inish (1994)

Rich
Posts: 2824
Likes:
Joined: Sat Feb 21, 2004 1:00 am

[REL] The Secret of Roan Inish (1994)

Postby Rich » Tue Mar 02, 2004 10:45 pm  0 likes

The Secret of Roan Inish (1994)

[Image]

Sent to live with her grandparents in a quaint coastal Irish town, 10-year-old Fiona (Jeni Courtney) is fascinated by the village's rich folk culture--especially the local myths about a half-human, half-seal creature known as a selkie.

Fiona becomes convinced that her supposedly deceased little brother is living with the selkies, and she travels to the beautiful, enchanted island of Roan Inish, where her grandparents once lived, to confirm her suspicions.


This movie is available for purchase here:
http://www.uln.com/cgi-bin/vlink/043396509238IE.html?ptitle=The-Secret-of-Roan-Inish-VHS

Rich :)

http://www.imdb.com/title/tt0111112/
User avatar
infiniter
Posts: 477
Likes:
Joined: Sun Feb 22, 2004 1:00 am

Re: [REL] The Secret of Roan Inish (1994)

Postby infiniter » Sun Mar 07, 2004 3:55 pm  0 likes

Rich
Posts: 2824
Likes:
Joined: Sat Feb 21, 2004 1:00 am

Re: [REL] The Secret of Roan Inish (1994)

Postby Rich » Wed Mar 31, 2004 6:19 pm  6 likes

FOUND! At fileheaven.org, THANKS to gitar1 :D

Like this post to see ed2k links  [697.28 Mb]

Rich :)
Guest

Re: [REL] The Secret of Roan Inish (1994)

Postby Guest » Fri Aug 05, 2005 3:01 am  5 likes

I have another rip of this one as well. Could use some help releasing it thou. No one seems to have heard of this movie. But if the other copy is complete please let me know so I can add other movies. I just love this movie and would hate to see it die out.

HQ Rip

Like this post to see ed2k links  [1.68 Gb]
Guest

Re: [REL] The Secret of Roan Inish (1994)

Postby Guest » Thu Aug 18, 2005 10:31 am  0 likes

Frame SnapShot from my rip for thous who are intersted

[Image]


I just find her adorable :oops:
User avatar
Amadeus
Posts: 914
Likes:
Joined: Wed Jul 04, 2007 1:00 am

Re: [REL] The Secret of Roan Inish (1994)

Postby Amadeus » Wed Jan 14, 2009 6:20 pm  0 likes

On The Movie Extra channel presently. Not certain about local listings...

http://rarefilmfinder.com/showfilm.php?id=315

[Image][Image]
User avatar
deadman
Posts: 208
Likes:
Joined: Thu Jun 22, 2017 4:25 pm

Re: [REL] The Secret of Roan Inish (1994)

Postby deadman » Tue May 29, 2018 11:24 am  11 likes

[Image] [Image] [Image]
[Image] [Image] [Image]
[Image] [Image] [Image]
[Image] [Image] [Image]
[Image] [Image] [Image]




Like this post to see ed2k links  [3.92 Gb]



Here are direct links for those who prefer that method or can't use eMule for whatever reason. All I ask is that if you're able to use eMule, please unrar to your shared folder and seed this for a while. Every source helps. You can still burn an .iso file to disc while it's being shared. It won't interfere with the recording process.


Code: Select all

https://mega.nz/#!jeIg3QAI!KyB8xCxiG5usXRjCHJWwFO-q8SI-8gZQSTtBOdM-DfQ


Code: Select all

https://www49.zippyshare.com/v/dDGGCFCm/file.html
https://www49.zippyshare.com/v/cvc3Yt9Z/file.html
https://www49.zippyshare.com/v/ei1VFXRG/file.html
https://www49.zippyshare.com/v/Pzzo3bFw/file.html
https://www49.zippyshare.com/v/qi9YXhUH/file.html
https://www49.zippyshare.com/v/d1ViKKom/file.html
https://www49.zippyshare.com/v/uxVZbvK9/file.html
https://www49.zippyshare.com/v/ZwyhYhTQ/file.html
https://www49.zippyshare.com/v/BgzgAEmR/file.html
Last edited by deadman on Fri May 24, 2019 10:46 pm, edited 8 times in total.
User avatar
ghost
Site Admin
Posts: 3705
Likes:
Joined: Sun Mar 07, 2004 1:00 am

Re: [REL] The Secret of Roan Inish (1994)

Postby ghost » Tue May 29, 2018 11:39 am  0 likes

Thanks :)
User avatar
ghost
Site Admin
Posts: 3705
Likes:
Joined: Sun Mar 07, 2004 1:00 am

Re: [REL] The Secret of Roan Inish (1994)

Postby ghost » Thu Jun 27, 2019 3:41 pm  6 likes

Unfortunatly the DVD had been cropped to 16:9, so some parts of the picture are missing.

I found the original uncropped version with an aspect ratio of 1.33:1 (4:3).
The quality is pretty good and it has german and english audio:

[Image]

I added english subtitles, because the irish accent is sometimes hard to understand.

Like this post to see ed2k links  [1.54 Gb]

Like this post to see ed2k links  [65.2 Kb]
Spoiler:

General
Complete name : The Secret of Roan Inish (1994).ger-eng.mkv
Format : Matroska
Format version : Version 4
File size : 1.54 GiB
Duration : 1 h 37 min
Overall bit rate : 2 260 kb/s
Encoded date : UTC 2019-06-27 14:11:21
Writing application : mkvmerge v35.0.0 ('All The Love In The World') 64-bit
Writing library : libebml v1.3.9 + libmatroska v1.5.2

Video
ID : 1
Format : AVC
Format/Info : Advanced Video Codec
Format profile : Main@L3.1
Format settings : CABAC / 4 Ref Frames
Format settings, CABAC : Yes
Format settings, Reference : 4 frames
Codec ID : V_MPEG4/ISO/AVC
Duration : 1 h 37 min
Bit rate : 1 998 kb/s
Width : 1 024 pixels
Height : 576 pixels
Display aspect ratio : 16:9
Frame rate mode : Constant
Frame rate : 25.000 FPS
Standard : PAL
Color space : YUV
Chroma subsampling : 4:2:0
Bit depth : 8 bits
Scan type : Progressive
Bits/(Pixel*Frame) : 0.136
Stream size : 1.36 GiB (88%)
Default : Yes
Forced : No
Color range : Limited
Color primaries : BT.601 PAL
Transfer characteristics : BT.470 System B/G
Matrix coefficients : BT.470 System B/G

Audio #1
ID : 2
Format : AAC LC
Format/Info : Advanced Audio Codec Low Complexity
Codec ID : A_AAC-2
Duration : 1 h 37 min
Bit rate : 132 kb/s
Channel(s) : 2 channels
Channel layout : L R
Sampling rate : 48.0 kHz
Frame rate : 46.875 FPS (1024 SPF)
Compression mode : Lossy
Stream size : 90.9 MiB (6%)
Language : German
Default : Yes
Forced : No

Audio #2
ID : 3
Format : AAC LC
Format/Info : Advanced Audio Codec Low Complexity
Codec ID : A_AAC-2
Duration : 1 h 37 min
Bit rate : 129 kb/s
Channel(s) : 2 channels
Channel layout : L R
Sampling rate : 48.0 kHz
Frame rate : 46.875 FPS (1024 SPF)
Compression mode : Lossy
Delay relative to video : 9 ms
Stream size : 89.7 MiB (6%)
Language : English
Default : No
Forced : No

User avatar
deadman
Posts: 208
Likes:
Joined: Thu Jun 22, 2017 4:25 pm

Re: [REL] The Secret of Roan Inish (1994)

Postby deadman » Fri Jun 28, 2019 3:02 am  0 likes

ghost wrote:Unfortunatly the DVD had been cropped to 16:9, so some parts of the picture are missing.

I found the original uncropped version with an aspect ratio of 1.33:1 (4:3).


Thank you! :D

I call this type of edit "false widescreen" - they take a 4:3 image and chop off the top and bottom of the picture, replacing it with black bars to create the illusion of a widescreen cut. Some made for TV movies are actually filmed in 4:3 aspect. They really should present them that way, instead of butchering them to fit a standard HDTV.
Last edited by deadman on Fri Jun 28, 2019 2:35 pm, edited 2 times in total.

Return to “United Kingdom”

Who is online

Users browsing this forum: No registered users and 2 guests