[REL] Tom's Midnight Garden (1999)

User avatar
vidman49
Posts: 398
Likes:
Joined: Sat Feb 05, 2011 1:00 am

Re: [REL] Tom's Midnight Garden (1999)

Post by vidman49 »   0 likes

Does anyone have this available for a reshare? I have about 85% of it and it has been stuck there since June.
Thanks
User avatar
yoko
Posts: 654
Likes:
Joined: Sat Aug 27, 2011 3:40 am

Re: [REL] Tom's Midnight Garden (1999)

Post by yoko »   1 likes

vidman49 wrote:Does anyone have this available for a reshare? I have about 85% of it and it has been stuck there since June.
That's weird. I've been sharing it most of the time, last few weeks anyway, and I'm still sharing it. "sources info" shows 2 complete sources.
User avatar
vidman49
Posts: 398
Likes:
Joined: Sat Feb 05, 2011 1:00 am

Re: [REL] Tom's Midnight Garden (1999)

Post by vidman49 »   0 likes

now I have it complete - after 5 months. Thanks for sharing it
User avatar
emuler
Posts: 4599
Likes:
Joined: Sun Apr 02, 2006 1:00 am

Re: [REL] Tom's Midnight Garden (1999)

Post by emuler »   0 likes

Could someone please reshare this? TIA. :D
User avatar
emuler
Posts: 4599
Likes:
Joined: Sun Apr 02, 2006 1:00 am

Re: [REL] Tom's Midnight Garden (1999)

Post by emuler »   0 likes

Complete. Thanks Kong King. :D

EDIT: Just finished watching this. Thanks, BLT for posting. Another great film - if it hadn't been for FLM I would never even have heard of it. I love this forum. :inlove
User avatar
emuler
Posts: 4599
Likes:
Joined: Sun Apr 02, 2006 1:00 am

Re: [REL] Tom's Midnight Garden (1999)

Post by emuler »   17 likes

Upgrade. BluRay. 1080p.
Spoiler:

General
Complete name : Toms.Midnight.Garden.1999.1080p.BluRay.x264.AAC-[YTS.MX].mp4
Format : MPEG-4
Format profile : Base Media
Codec ID : isom (isom/iso2/avc1/mp41)
File size : 1.72 GiB
Duration : 1 h 43 min
Overall bit rate : 2 386 kb/s
Writing application : Lavf58.68.100

Video
ID : 1
Format : AVC
Format/Info : Advanced Video Codec
Format profile : High@L4.1
Format settings : CABAC / 4 Ref Frames
Format settings, CABAC : Yes
Format settings, Reference fra : 4 frames
Codec ID : avc1
Codec ID/Info : Advanced Video Coding
Duration : 1 h 43 min
Bit rate : 2 250 kb/s
Maximum bit rate : 31.2 Mb/s
Width : 1 920 pixels
Height : 800 pixels
Display aspect ratio : 2.40:1
Frame rate mode : Constant
Frame rate : 30.000 FPS
Color space : YUV
Chroma subsampling : 4:2:0
Bit depth : 8 bits
Scan type : Progressive
Bits/(Pixel*Frame) : 0.049
Stream size : 1.62 GiB (94%)
Writing library : x264 core 161
Encoding settings : cabac=1 / ref=4 / deblock=1:-1:-1 / analyse=0x3:0x133 / me=umh / subme=9 / psy=1 / psy_rd=1.00:0.15 / mixed_ref=1 / me_range=24 / chroma_me=1 / trellis=2 / 8x8dct=1 / cqm=0 / deadzone=21,11 / fast_pskip=0 / chroma_qp_offset=-3 / threads=24 / lookahead_threads=2 / sliced_threads=0 / nr=0 / decimate=1 / interlaced=0 / bluray_compat=0 / constrained_intra=0 / bframes=3 / b_pyramid=2 / b_adapt=2 / b_bias=0 / direct=3 / weightb=1 / open_gop=0 / weightp=2 / keyint=250 / keyint_min=23 / scenecut=40 / intra_refresh=0 / rc_lookahead=60 / rc=2pass / mbtree=1 / bitrate=2250 / ratetol=1.0 / qcomp=0.60 / qpmin=0 / qpmax=69 / qpstep=4 / cplxblur=20.0 / qblur=0.5 / vbv_maxrate=31250 / vbv_bufsize=31250 / nal_hrd=none / filler=0 / ip_ratio=1.40 / aq=1:1.00
Color range : Limited
Color primaries : BT.709
Transfer characteristics : BT.709
Matrix coefficients : BT.709
Codec configuration box : avcC

Audio
ID : 2
Format : AAC LC
Format/Info : Advanced Audio Codec Low Complexity
Codec ID : mp4a-40-2
Duration : 1 h 43 min
Source duration : 1 h 43 min
Bit rate mode : Constant
Bit rate : 128 kb/s
Channel(s) : 2 channels
Channel layout : L R
Sampling rate : 48.0 kHz
Frame rate : 46.875 FPS (1024 SPF)
Compression mode : Lossy
Stream size : 94.5 MiB (5%)
Source stream size : 94.5 MiB (5%)
Default : Yes
Alternate group : 1
mdhd_Duration : 6201344
[Image]

Like this post to see ed2k links  [1.72 Gb]
Post Reply