[REL] National Velvet (1944)

User avatar
starfish21
Posts: 3376
Likes:
Joined: Tue May 23, 2006 1:00 am

[REL] National Velvet (1944)

Postby starfish21 » Sun Mar 27, 2011 11:59 am  0 likes

http://www.imdb.com/title/tt0037120/

i can't find this here,which really surprises me considering it is an absolute classic by the person whom many people(including myself) believe to be the greatest actress that ever lived.and who passed away this week
http://www.imdb.com/name/nm0000072/


[Image][Image][Image]

[Image][Image][Image]

[Image][Image][Image]

[Image][Image][Image]

[Image][Image][Image]

[Image][Image][Image]

[Image][Image][Image]

[Image][Image][Image]

[Image][Image]


Format : AVI
Format/Info : Audio Video Interleave
File size : 1.03 GiB
Duration : 1h 58mn
Overall bit rate : 1 243 Kbps

Video
ID : 0
Format : MPEG-4 Visual
Format settings, BVOP : 1
Format settings, QPel : No
Format settings, GMC : No warppoints
Format settings, Matrix : Default (H.263)
Muxing mode : Packed bitstream
Codec ID : DX50
Codec ID/Hint : DivX 5
Duration : 1h 58mn
Bit rate : 1 111 Kbps
Width : 704 pixels
Height : 528 pixels
Display aspect ratio : 4:3
Frame rate : 25.000 fps
Color space : YUV
Chroma subsampling : 4:2:0
Bit depth : 8 bits
Scan type : Progressive
Compression mode : Lossy
Bits/(Pixel*Frame) : 0.120
Stream size : 940 MiB (89%)
Title : Video
Writing library : DivX 5.2.1 Alpha (UTC 2004-09-08)

Audio
ID : 1
Format : MPEG Audio
Format version : Version 1
Format profile : Layer 3
Mode : Joint stereo
Mode extension : MS Stereo
Codec ID : 55
Codec ID/Hint : MP3
Duration : 1h 58mn
Bit rate mode : Variable
Bit rate : 128 Kbps
Channel(s) : 2 channels
Sampling rate : 48.0 KHz
Compression mode : Lossy
Stream size : 101 MiB (10%)
Alignment : Aligned on interleaves
Interleave, duration : 24 ms (0.60 video frame)
Interleave, preload duration : 405 ms
Title : Audio

Like this post to see ed2k links  [1.03 Gb]
FLL
Posts: 2191
Likes:
Joined: Mon Aug 28, 2006 1:00 am

Re: [REL]National Velvet (1944)

Postby FLL » Mon Mar 28, 2011 8:59 am  0 likes

Thanks starfish! :bigups

Her passing also made me think of this film. Since I had never seen it, we made this the Saturday Night Movie in my household. Wonderful film! By the time it occurred to me to post it here, you were a step ahead of me. :dance

Return to “United Kingdom”

Who is online

Users browsing this forum: No registered users and 2 guests